coor
一代宗师

[更 早] [其他] [剧情] [BD-Remux] 英雄无泪 Heroes.Shed.No.Tears.1986.CHINESE.1080p.BluRay.REMUX.AVC.DTS-HD.MA.5.1-FGT

-->

帖子完整标题:英雄无泪 Heroes.Shed.No.Tears.1986.CHINESE.1080p.BluRay.REMUX.AVC.DTS-HD.MA.5.1-FGT 22.10GB




◎译  名 Heroes Shed No Tears
◎片  名 英雄无泪
◎年  代 1986
◎产  地 中国香港
◎类  别 剧情 / 动作
◎语  言 粤语
◎上映日期 1986-09-05
◎IMDb评分 6.3/10 from 931 users
◎IMDb链接 https://www.imdb.com/title/tt0092264
◎豆瓣评分 6.3/10 from 828 users
◎豆瓣链接 https://movie.douban.com/subject/1295396/
◎片  长 85分钟
◎导  演 吴宇森
◎编  剧 吴宇森
◎主  演 林正英
      高雄
      钱月笙
      马英俊
      Phillip Loffredo
      Cecile Le Bailly


◎标  签 吴宇森 | 动作 | 香港 | 林正英 | 香港电影 | 1986 | 战争 | 高雄

◎简  介

  1986吴宇森编导的动作片,林正英、钱月笙主演。陈忠受美国秘密聘请捉拿泰籍毒枭,条件是保送儿子及小姨移民美国,陈及同行在行动中受到重创。在困境中,重遇美国爆破专家,为帮陈忠逃离,报答救命之恩,决定以死相助。
Video
ID : 1
Format : AVC
Format/Info : Advanced Video Codec
Format profile : [email protected]
Format settings : CABAC / 4 Ref Frames
Format settings, CABAC : Yes
Format settings, Reference frames : 4 frames
Codec ID : V_MPEG4/ISO/AVC
Duration : 1 h 28 min
Bit rate mode : Variable
Bit rate : 26.0 Mb/s
Maximum bit rate : 35.0 Mb/s
Width : 1 920 pixels
Height : 1 080 pixels
Display aspect ratio : 16:9
Frame rate mode : Constant
Frame rate : 23.976 (24000/1001) FPS
Standard : Component
Color space : YUV
Chroma subsampling : 4:2:0
Bit depth : 8 bits
Scan type : Progressive
Bits/(Pixel*Frame) : 0.523
Stream size : 16.0 GiB (72%)
Title : Heroes.Shed.No.Tears.1986.CHINESE.1080p.BluRay.REMUX.AVC.DTS-HD.MA.5.1-FGT
Writing library : x264 core 148
Encoding settings : cabac=1 / ref=4 / deblock=1:0:0 / analyse=0x3:0x113 / me=hex / subme=7 / psy=1 / psy_rd=1.00:0.00 / mixed_ref=1 / me_range=16 / chroma_me=1 / trellis=1 / 8x8dct=1 / cqm=1 / deadzone=21,11 / fast_pskip=1 / chroma_qp_offset=-2 / threads=6 / lookahead_threads=1 / sliced_threads=0 / slices=4 / nr=0 / decimate=1 / interlaced=0 / minigop=1 / stitchable=1 / constrained_intra=0 / bframes=2 / b_pyramid=0 / b_adapt=1 / b_bias=0 / direct=1 / weightb=1 / open_gop=1 / weightp=1 / keyint=24 / keyint_min=1 / scenecut=40 / intra_refresh=0 / rc_lookahead=24 / rc=2pass / mbtree=1 / bitrate=26000 / ratetol=1.0 / qcomp=0.60 / qpmin=3 / qpmax=69 / qpstep=4 / cplxblur=20.0 / qblur=0.5 / vbv_maxrate=35000 / vbv_bufsize=30000 / nal_hrd=vbr / filler=0 / ip_ratio=1.40 / aq=1:1.00
Language : English
Default : No
Forced : No
Color range : Limited
Color primaries : BT.709
Transfer characteristics : BT.709
Matrix coefficients : BT.709

Audio #1
ID : 2
Format : DTS XLL
Format/Info : Digital Theater Systems
Commercial name : DTS-HD Master Audio
Codec ID : A_DTS
Duration : 1 h 28 min
Bit rate mode : Variable
Bit rate : 3 992 kb/s
Channel(s) : 6 channels
Channel layout : C L R Ls Rs LFE
Sampling rate : 48.0 kHz
Frame rate : 93.750 FPS (512 SPF)
Bit depth : 24 bits
Compression mode : Lossless
Stream size : 2.47 GiB (11%)
Title : Heroes.Shed.No.Tears.1986.CHINESE.1080p.BluRay.REMUX.AVC.DTS-HD.MA.5.1-FGT
Language : Chinese
Default : Yes
Forced : No

Audio #2
ID : 3
Format : DTS XLL
Format/Info : Digital Theater Systems
Commercial name : DTS-HD Master Audio
Codec ID : A_DTS
Duration : 1 h 28 min
Bit rate mode : Variable
Bit rate : 4 009 kb/s
Channel(s) : 6 channels
Channel layout : C L R Ls Rs LFE
Sampling rate : 48.0 kHz
Frame rate : 93.750 FPS (512 SPF)
Bit depth : 24 bits
Compression mode : Lossless
Stream size : 2.48 GiB (11%)
Title : Heroes.Shed.No.Tears.1986.CHINESE.1080p.BluRay.REMUX.AVC.DTS-HD.MA.5.1-FGT
Language : English
Default : No
Forced : No

Audio #3
ID : 4
Format : DTS XLL
Format/Info : Digital Theater Systems
Commercial name : DTS-HD Master Audio
Codec ID : A_DTS
Duration : 1 h 28 min
Bit rate mode : Variable
Bit rate : 1 569 kb/s
Channel(s) : 2 channels
Channel layout : L R
Sampling rate : 48.0 kHz
Frame rate : 93.750 FPS (512 SPF)
Bit depth : 16 bits
Compression mode : Lossless
Stream size : 992 MiB (4%)
Title : Heroes.Shed.No.Tears.1986.CHINESE.1080p.BluRay.REMUX.AVC.DTS-HD.MA.5.1-FGT
Language : Chinese
Default : No
Forced : No

Audio #4
ID : 5
Format : AC-3
Format/Info : Audio Coding 3
Commercial name : Dolby Digital
Codec ID : A_AC3
Duration : 1 h 28 min
Bit rate mode : Constant
Bit rate : 320 kb/s
Channel(s) : 2 channels
Channel layout : L R
Sampling rate : 48.0 kHz
Frame rate : 31.250 FPS (1536 SPF)
Bit depth : 16 bits
Compression mode : Lossy
Stream size : 202 MiB (1%)
Title : Heroes.Shed.No.Tears.1986.CHINESE.1080p.BluRay.REMUX.AVC.DTS-HD.MA.5.1-FGT
Language : English
Service kind : Complete Main
Default : No
Forced : No

Text
ID : 6
Format : PGS
Muxing mode : zlib
Codec ID : S_HDMV/PGS
Codec ID/Info : Picture based subtitle format used on BDs/HD-DVDs
Duration : 1 h 26 min
Bit rate : 19.9 kb/s
Count of elements : 1038
Stream size : 12.3 MiB (0%)
Title : English-PGS
Language : English
Default : Yes
Forced : No

Menu
00:00:00.000 : en:Chapter 01
00:04:03.701 : en:Chapter 02
00:06:49.492 : en:Chapter 03
00:12:59.403 : en:Chapter 04
00:23:07.511 : en:Chapter 05
00:33:49.819 : en:Chapter 06
00:42:06.815 : en:Chapter 07
00:51:07.272 : en:Chapter 08
01:01:22.970 : en:Chapter 09
01:07:58.324 : en:Chapter 10
01:16:15.654 : en:Chapter 11
01:25:28.748 : en:Chapter 12
01:28:22.547 : en:Chapter 13





1 个附件 售价 大小 下载 时间

Heroes.Shed.No.Tears.1986.CHINESE.1080p.BluRay.REMUX.AVC.DTS-HD.MA.5.1-FGT.torrent 0 金币 55.84K 1379 次 5月前

#1楼
发帖时间:2020-02-14 20:54:09   |   回复数:3
jokingcheung
一代宗师
谢谢分享
5月前 #2楼
911degrees
隐世仙人♂
非常感谢,谢谢分享
5月前 #3楼
kola13
武林盟主
感谢分享
5月前 #4楼
游客组