coor
一代宗师

[更 早] [其他] [剧情] [WEB-1080P] 寻枪 The.Missing.Gun.2002.CHINESE.ENSUBBED.1080p.AMZN.WEBRip.DDP2.0.x264-ABM 8.47G

-->

帖子完整标题:寻枪 The.Missing.Gun.2002.CHINESE.ENSUBBED.1080p.AMZN.WEBRip.DDP2.0.x264-ABM 8.47GB




◎译  名 The Missing Gun
◎片  名 寻枪
◎年  代 2002
◎产  地 中国大陆
◎类  别 剧情 / 悬疑 / 犯罪
◎语  言 贵州话
◎上映日期 2002-05-09(中国大陆)
◎IMDb评分 6.7/10 from 1078 users
◎IMDb链接 https://www.imdb.com/title/tt0342778
◎豆瓣评分 7.7/10 from 65689 users
◎豆瓣链接 https://movie.douban.com/subject/1305224/
◎片  长 90分钟
◎导  演 陆川 Chuan Lu
◎编  剧 陆川 Chuan Lu
◎主  演 姜文 Wen Jiang
      宁静 Jing Ning
      伍宇娟 Yujuan Wu
      刘小宁 Xiaoning Liu
      魏小平
      石凉 Liang Shi


◎标  签 姜文 | 陆川 | 中国电影 | 剧情 | 大陆 | 中国 | 悬疑 | 寻枪

◎简  介

  马山(姜文)是西南地区某边陲小镇的一名普通警察,某晚参加妹妹婚宴时因喝得酩酊大醉被人送回家中,次日早晨醒来时,他发现从不离身的配枪不翼而飞。意识到偷枪人可用枪里的三颗子弹杀人时,马山不禁毛骨悚然,当晚所有参加妹妹婚礼的人都成了他的怀疑对象。
  在对重点嫌疑人,卖“羊肉粉”的刘结巴、送他回家的周小刚、突然出现在周小刚家的旧恋人李小萌(宁静)一番追踪后,马山依旧没能理出任何头绪,而对李小萌的怀疑里,又混杂了极为复杂的感情,此又导致其妻怀疑他移情别恋。正在这时,李小萌在周小刚家被人用枪打死,马山作为嫌疑人被拘禁。经过一番冷静思考,他终于将乱麻捋顺,开始了寻枪之路。

◎获奖情况

  第7届釜山国际电影节(2002)
  新浪潮奖(提名) 陆川

  第3届华语电影传媒大奖(2003)
  最佳男演员 姜文
  最佳处女作 陆川
  最佳电影
  最佳导演(提名) 陆川

  第9届北京大学生电影节(2002)
  最佳处女作奖 陆川
Video
ID : 1
Format : AVC
Format/Info : Advanced Video Codec
Format profile : [email protected]
Format settings : CABAC / 4 Ref Frames
Format settings, CABAC : Yes
Format settings, Reference frames : 4 frames
Codec ID : V_MPEG4/ISO/AVC
Duration : 1 h 29 min
Bit rate mode : Variable
Bit rate : 13.3 Mb/s
Maximum bit rate : 15.0 Mb/s
Width : 1 920 pixels
Height : 1 080 pixels
Display aspect ratio : 16:9
Frame rate mode : Constant
Frame rate : 23.976 (24000/1001) FPS
Color space : YUV
Chroma subsampling : 4:2:0
Bit depth : 8 bits
Scan type : Progressive
Bits/(Pixel*Frame) : 0.267
Stream size : 8.33 GiB (98%)
Writing library : x264 core 148 r2623 d5b2374
Encoding settings : cabac=1 / ref=4 / deblock=1:-1:-1 / analyse=0x3:0x133 / me=umh / subme=9 / psy=1 / psy_rd=1.00:0.15 / mixed_ref=1 / me_range=24 / chroma_me=1 / trellis=2 / 8x8dct=1 / cqm=0 / deadzone=21,11 / fast_pskip=1 / chroma_qp_offset=-3 / threads=34 / lookahead_threads=5 / sliced_threads=0 / nr=150 / decimate=1 / interlaced=0 / bluray_compat=0 / constrained_intra=0 / bframes=8 / b_pyramid=2 / b_adapt=2 / b_bias=0 / direct=3 / weightb=1 / open_gop=0 / weightp=2 / keyint=120 / keyint_min=61 / scenecut=0 / intra_refresh=0 / rc_lookahead=120 / rc=crf / mbtree=1 / crf=18.0 / qcomp=0.60 / qpmin=0 / qpmax=69 / qpstep=4 / vbv_maxrate=15000 / vbv_bufsize=31250 / crf_max=0.0 / nal_hrd=vbr / filler=0 / ip_ratio=1.40 / aq=3:1.00
Default : Yes
Forced : No
Color range : Limited
Color primaries : BT.709
Transfer characteristics : BT.709
Matrix coefficients : BT.709

Audio
ID : 2
Format : E-AC-3
Format/Info : Enhanced AC-3
Commercial name : Dolby Digital Plus
Codec ID : A_EAC3
Duration : 1 h 29 min
Bit rate mode : Constant
Bit rate : 224 kb/s
Channel(s) : 2 channels
Channel layout : L R
Sampling rate : 48.0 kHz
Frame rate : 31.250 FPS (1536 SPF)
Compression mode : Lossy
Stream size : 144 MiB (2%)
Language : Chinese
Service kind : Complete Main
Default : Yes
Forced : No

Text #1
ID : 3
Format : UTF-8
Codec ID : S_TEXT/UTF8
Codec ID/Info : UTF-8 Plain Text
Duration : 3 s 104 ms
Bit rate : 79 b/s
Count of elements : 1
Stream size : 31.0 Bytes (0%)
Language : English
Default : No
Forced : No

Text #2
ID : 4
Format : UTF-8
Codec ID : S_TEXT/UTF8
Codec ID/Info : UTF-8 Plain Text
Duration : 1 h 26 min
Bit rate : 1 b/s
Count of elements : 70
Stream size : 876 Bytes (0%)
Title : SDH
Language : English
Default : No
Forced : No





1 个附件 售价 大小 下载 时间

The.Missing.Gun.2002.CHINESE.ENSUBBED.1080p.AMZN.WEBRip.DDP2.0.x264-ABM.torrent 0 金币 85.27K 840 次 5月前

#1楼
发帖时间:2020-02-15 00:48:09   |   回复数:4
liyouchai
隐世仙人♂
谢谢楼主分享资源
5月前 #2楼
lfydh152
武林高手
这个版本发过一次,很清晰,但是英语硬字幕太恶心了,无奈删了!
5月前 #3楼
jokingcheung
一代宗师
谢谢分享
5月前 #4楼
911degrees
隐世仙人♂
非常感谢,谢谢分享
5月前 #5楼
游客组