coor
一代宗师

[更 早] [其他] [剧情] [WEB-1080P] 亡命天涯 Runaway.2003.ITALIAN.1080p.AMZN.WEBRip.DDP2.0.x264-KamiKaze 6.26GB

-->

帖子完整标题:亡命天涯 Runaway.2003.ITALIAN.1080p.AMZN.WEBRip.DDP2.0.x264-KamiKaze 6.26GB




◎译  名 亡命天涯
◎片  名 Il fuggiasco
◎年  代 2003
◎产  地 意大利
◎类  别 剧情 / 动作
◎语  言 意大利语
◎上映日期 2003-11-17
◎IMDb评分 6.9/10 from 159 users
◎IMDb链接 https://www.imdb.com/title/tt0399072
◎豆瓣评分 0/10 from 0 users
◎豆瓣链接 https://movie.douban.com/subject/6137240/
◎导  演 Andrea Manni
◎编  剧 Andrea Manni
◎主  演 Alessandro Benvenuti
      Roberto Citran


◎简  介

  The story of an innocent man accused of a murder. At one moment his stable life turned into a never-ending nightmare. Sufferings,physical and mental pain, humiliation, ruining of all his hopes and dreams, the loss of his true love, his parents, his country. Written by Jo?o Ferreira
Video
ID : 1
Format : AVC
Format/Info : Advanced Video Codec
Format profile : [email protected]
Format settings : CABAC / 4 Ref Frames
Format settings, CABAC : Yes
Format settings, Reference frames : 4 frames
Codec ID : V_MPEG4/ISO/AVC
Duration : 1 h 34 min
Bit rate mode : Constant
Bit rate : 9 273 kb/s
Nominal bit rate : 10 000 kb/s
Width : 1 920 pixels
Height : 816 pixels
Display aspect ratio : 2.35:1
Frame rate mode : Constant
Frame rate : 29.970 (30000/1001) FPS
Color space : YUV
Chroma subsampling : 4:2:0
Bit depth : 8 bits
Scan type : Progressive
Bits/(Pixel*Frame) : 0.197
Stream size : 6.11 GiB (98%)
Default : Yes
Forced : No
Color range : Limited
Color primaries : BT.709
Transfer characteristics : BT.709
Matrix coefficients : BT.709

Audio
ID : 2
Format : E-AC-3
Format/Info : Enhanced AC-3
Commercial name : Dolby Digital Plus
Codec ID : A_EAC3
Duration : 1 h 34 min
Bit rate mode : Constant
Bit rate : 224 kb/s
Channel(s) : 2 channels
Channel layout : L R
Sampling rate : 48.0 kHz
Frame rate : 31.250 FPS (1536 SPF)
Compression mode : Lossy
Stream size : 151 MiB (2%)
Language : Italian
Service kind : Complete Main
Default : Yes
Forced : No

Text
ID : 3
Format : UTF-8
Codec ID : S_TEXT/UTF8
Codec ID/Info : UTF-8 Plain Text
Duration : 1 h 29 min
Bit rate : 46 b/s
Count of elements : 877
Stream size : 30.2 KiB (0%)
Title : English [CC](SDH)
Language : English
Default : Yes
Forced : No





1 个附件 售价 大小 下载 时间

Runaway.2003.ITALIAN.1080p.AMZN.WEBRip.DDP2.0.x264-KamiKaze.torrent 0 金币 31.85K 147 次 7月前

#1楼
发帖时间:2020-02-15 03:43:52   |   回复数:1
911degrees
隐世仙人♂
非常感谢,谢谢分享
7月前 #2楼
游客组