coor
一代宗师

[2018] [其他] [剧情] [WEB-1080P] 失去了什么 Nothing.to.Lose.2018.PORTUGUESE.1080p.NF.WEBRip.DD5.1.x264-CREATiVE 3.87GB

-->

帖子完整标题:失去了什么 Nothing.to.Lose.2018.PORTUGUESE.1080p.NF.WEBRip.DD5.1.x264-CREATiVE 3.87GB




◎译  名 失去了什么 / Nothing to Lose / 一无所有 / 再无可失 / 没有什么可失去
◎片  名 Nada a Perder
◎年  代 2018
◎产  地 巴西
◎类  别 剧情 / 传记
◎语  言 葡萄牙语
◎上映日期 2018-03-29(巴西)
◎IMDb评分 5.5/10 from 22780 users
◎IMDb链接 https://www.imdb.com/title/tt6910020
◎豆瓣评分 0/10 from 0 users
◎豆瓣链接 https://movie.douban.com/subject/30234165/
◎片  长 134分钟
◎导  演 Alexandre Avancini
◎编  剧 Emílio Boechat / 斯蒂芬·P·林赛 Stephen P. Lindsey / Douglas Tavolaro
◎主  演 Petronio Gontijo
      Day Mesquita
      Beth Goulart
      达尔顿·维格 Dalton Vigh
      André Gon?alves
      马尔塞洛·艾罗蒂 Marcello Airoldi
      Laurent Andruet
      Greta Antoine
      Rafael Awi
      Enzo Barone
      Kathia Calil
      Paulo Coronato
      Camila Czerkes
      Larissa Ferrara
      里昂纳多·佛朗哥 Leonardo Franco


◎标  签 巴西 | 传记 | 2018 | 电影 | ----

◎简  介

  Self-financed biopic of Brazilian evangelical bishop Edir Macedo, founder of the Universal Church of the Kingdom of God and owner of Record TV network.
Video
ID : 1
Format : AVC
Format/Info : Advanced Video Codec
Format profile : [email protected]
Format settings : CABAC / 3 Ref Frames
Format settings, CABAC : Yes
Format settings, Reference frames : 3 frames
Codec ID : V_MPEG4/ISO/AVC
Duration : 2 h 12 min
Bit rate mode : Variable
Bit rate : 3 830 kb/s
Maximum bit rate : 5 745 kb/s
Width : 1 920 pixels
Height : 1 080 pixels
Display aspect ratio : 16:9
Frame rate mode : Constant
Frame rate : 23.976 (24000/1001) FPS
Color space : YUV
Chroma subsampling : 4:2:0
Bit depth : 8 bits
Scan type : Progressive
Bits/(Pixel*Frame) : 0.077
Stream size : 3.51 GiB (91%)
Writing library : x264 core 148 r2715 7e75228
Encoding settings : cabac=1 / ref=3 / deblock=1:0:0 / analyse=0x1:0x111 / me=umh / subme=10 / psy=1 / psy_rd=1.00:0.00 / mixed_ref=1 / me_range=24 / chroma_me=1 / trellis=2 / 8x8dct=0 / cqm=0 / deadzone=21,11 / fast_pskip=1 / chroma_qp_offset=-2 / threads=8 / lookahead_threads=1 / sliced_threads=0 / nr=0 / decimate=1 / interlaced=0 / bluray_compat=0 / stitchable=1 / constrained_intra=0 / bframes=2 / b_pyramid=0 / b_adapt=2 / b_bias=0 / direct=3 / weightb=1 / open_gop=0 / weightp=2 / keyint=48 / keyint_min=25 / scenecut=0 / intra_refresh=0 / rc_lookahead=48 / rc=2pass / mbtree=1 / bitrate=3830 / ratetol=1.0 / qcomp=0.50 / qpmin=6 / qpmax=51 / qpstep=4 / cplxblur=20.0 / qblur=0.5 / vbv_maxrate=5745 / vbv_bufsize=7660 / nal_hrd=vbr / filler=0 / ip_ratio=1.40 / aq=1:1.00
Default : Yes
Forced : No

Audio
ID : 2
Format : AC-3
Format/Info : Audio Coding 3
Commercial name : Dolby Digital
Codec ID : A_AC3
Duration : 2 h 12 min
Bit rate mode : Constant
Bit rate : 384 kb/s
Channel(s) : 6 channels
Channel layout : L R C LFE Ls Rs
Sampling rate : 48.0 kHz
Frame rate : 31.250 FPS (1536 SPF)
Compression mode : Lossy
Stream size : 364 MiB (9%)
Language : Portuguese
Service kind : Complete Main
Default : Yes
Forced : No

Text #1
ID : 3
Format : UTF-8
Codec ID : S_TEXT/UTF8
Codec ID/Info : UTF-8 Plain Text
Duration : 2 h 0 min
Bit rate : 45 b/s
Count of elements : 1156
Stream size : 40.4 KiB (0%)
Language : English
Default : No
Forced : No

Text #2
ID : 4
Format : UTF-8
Codec ID : S_TEXT/UTF8
Codec ID/Info : UTF-8 Plain Text
Duration : 2 h 0 min
Bit rate : 55 b/s
Count of elements : 1403
Stream size : 49.3 KiB (0%)
Title : SDH
Language : Portuguese
Default : No
Forced : No

Text #3
ID : 5
Format : UTF-8
Codec ID : S_TEXT/UTF8
Codec ID/Info : UTF-8 Plain Text
Duration : 2 h 9 min
Bit rate : 43 b/s
Count of elements : 1141
Stream size : 41.4 KiB (0%)
Language : Spanish
Default : No
Forced : No

Text #4
ID : 6
Format : UTF-8
Codec ID : S_TEXT/UTF8
Codec ID/Info : UTF-8 Plain Text
Duration : 2 h 9 min
Bit rate : 45 b/s
Count of elements : 1155
Stream size : 43.6 KiB (0%)
Language : French
Default : No
Forced : No

Text #5
ID : 7
Format : UTF-8
Codec ID : S_TEXT/UTF8
Codec ID/Info : UTF-8 Plain Text
Duration : 2 h 9 min
Bit rate : 47 b/s
Count of elements : 1160
Stream size : 45.4 KiB (0%)
Language : German
Default : No
Forced : No





1 个附件 售价 大小 下载 时间

Nothing.to.Lose.2018.PORTUGUESE.1080p.NF.WEBRip.DD5.1.x264-CREATiVE.torrent 0 金币 77.94K 112 次 7天前

#1楼
发帖时间:2020-02-15 03:55:56   |   回复数:1
911degrees
隐世仙人♂
非常感谢,谢谢分享
6天前 #2楼
游客组