coor
一代宗师

[更 早] [欧美] [剧情] [WEB-720P] 夺命鸳鸯 Kill.Me.Later.2001.720p.AMZN.WEBRip.DDP2.0.x264-IKA 3.70GB

-->

帖子完整标题:夺命鸳鸯 Kill.Me.Later.2001.720p.AMZN.WEBRip.DDP2.0.x264-IKA 3.70GB




◎译  名 夺命鸳鸯
◎片  名 Kill Me Later
◎年  代 2001
◎产  地 美国
◎类  别 剧情 / 爱情 / 惊悚 / 犯罪
◎语  言 英语
◎上映日期 2001-09-14
◎IMDb评分 6.3/10 from 2176 users
◎IMDb链接 https://www.imdb.com/title/tt0243595
◎豆瓣评分 7.6/10 from 46 users
◎豆瓣链接 https://movie.douban.com/subject/1306529/
◎片  长 89 分钟
◎导  演 黛娜 鲁斯提 (Dana Lustig)
◎编  剧 Annette Goliti Gutierrez / 黛娜 鲁斯提 (Dana Lustig)
◎主  演 塞尔玛·布莱尔 Selma Blair
      马克思·比斯雷 Max Beesley


◎标  签 美国 | 爱情 | 美国电影 | 2001 | 犯罪 | 剧情 | 人生 | SelmaBlair

◎简  介

  夏恩是银行贷款专员,饱受爱的折磨,缺乏父爱的成长背景,与上司之间的婚外情,皆让她身心俱疲,了无生意。某日决定一死了断,登上银行楼顶,准备跳楼自尽,偏偏遇上银行抢案,遭抢匪之一的查理挟持为人质,要胁夏恩助他逃亡。夏恩因此与查理达成协议,在协助查理逃亡成功后,查理必须杀了她,以为报酬。然而成功脱困之后,查理拒绝履行承诺,反而希望夏恩坚强活下去,并答应将抢来的赃款,分一部份给夏恩。只是赃款在另一名同伙比利身上,他俩必须先将钱拿到手,同时躲避警方的追捕。途中两人渐渐了解彼此,夏恩发现查理也有一段伤心的过往,在彼此分享与鼓舞的逃亡路上,爱意油然而生,只是能否逃离警方严密的追缉,展开两人的新生活,却是个未知数
Video
ID : 1
Format : AVC
Format/Info : Advanced Video Codec
Format profile : [email protected]
Format settings : CABAC / 4 Ref Frames
Format settings, CABAC : Yes
Format settings, Reference frames : 4 frames
Codec ID : V_MPEG4/ISO/AVC
Duration : 1 h 29 min
Bit rate mode : Constant
Bit rate : 5 679 kb/s
Nominal bit rate : 6 000 kb/s
Width : 1 280 pixels
Height : 688 pixels
Display aspect ratio : 1.85:1
Frame rate mode : Constant
Frame rate : 29.970 (30000/1001) FPS
Color space : YUV
Chroma subsampling : 4:2:0
Bit depth : 8 bits
Scan type : Progressive
Bits/(Pixel*Frame) : 0.215
Stream size : 3.56 GiB (96%)
Default : Yes
Forced : No
Color range : Limited
Color primaries : BT.709
Transfer characteristics : BT.709
Matrix coefficients : BT.709

Audio
ID : 2
Format : E-AC-3
Format/Info : Enhanced AC-3
Commercial name : Dolby Digital Plus
Codec ID : A_EAC3
Duration : 1 h 29 min
Bit rate mode : Constant
Bit rate : 224 kb/s
Channel(s) : 2 channels
Channel layout : L R
Sampling rate : 48.0 kHz
Frame rate : 31.250 FPS (1536 SPF)
Compression mode : Lossy
Stream size : 144 MiB (4%)
Language : English
Service kind : Complete Main
Default : Yes
Forced : No

Text
ID : 3
Format : UTF-8
Codec ID : S_TEXT/UTF8
Codec ID/Info : UTF-8 Plain Text
Duration : 1 h 25 min
Bit rate : 62 b/s
Count of elements : 1357
Stream size : 39.2 KiB (0%)
Title : SDH
Language : English
Default : No
Forced : No





1 个附件 售价 大小 下载 时间

Kill.Me.Later.2001.720p.AMZN.WEBRip.DDP2.0.x264-IKA.torrent 0 金币 37.57K 189 次 1月前

#1楼
发帖时间:2020-02-20 23:53:23   |   回复数:0
游客组