coor
一代宗师

[2019] [欧美] [惊悚] [BD-720P] 我唾弃你的坟墓:似曾相识/我唾弃你的坟墓4 I.Spit.On.Your.Grave.Deja.Vu.2019.720p.BluRay.x264-CREEPSH

-->

帖子完整标题:我唾弃你的坟墓:似曾相识/我唾弃你的坟墓4 I.Spit.On.Your.Grave.Deja.Vu.2019.720p.BluRay.x264-CREEPSHOW 6.55GB




◎译  名 我唾弃你的坟墓:似曾相识 / 我唾弃你的坟墓4
◎片  名 I Spit on Your Grave: Deja Vu
◎年  代 2019
◎产  地 美国
◎类  别 惊悚 / 恐怖
◎语  言 英语
◎上映日期 2019-04-23(美国)
◎IMDb评分 2.3/10 from 1453 users
◎IMDb链接 https://www.imdb.com/title/tt4058836
◎豆瓣评分 3.6/10 from 2136 users
◎豆瓣链接 https://movie.douban.com/subject/26420435/
◎片  长 148分钟
◎导  演 梅尔·扎奇 Meir Zarchi
◎编  剧 梅尔·扎奇 Meir Zarchi
◎主  演 卡米尔·基顿 Camille Keaton
      玛利亚·奥尔森 Maria Olsen
      梅尔·扎奇 Meir Zarchi
      本·瓦伦 Ben Whalen
      Jamie Bernadette
      Jim Tavaré
      Jonathan Peacy
      Jeremy Ferdman
      Holgie Forrester
      Roy Allen III
      Alexandra Kenworthy
      Terry Zarchi
      Tammy Zarchi
      Adam Cerro
      Phillip K. Galaras
      Kelci C. Magel
      Tony Snegoff


◎标  签 烂片 | 血腥 | 犯罪 | 惊悚 | 恐怖 | 我唾弃你的坟墓 | 美国 | 暴力

◎简  介

  在遭遇了非人的虐待并亲手屠杀了那几名施暴者之后,女作家詹妮弗·希尔斯(卡米尔·基顿 Camille Keaton 饰)声名大振。她不仅没有遭到法律的制裁,而且将自己的经历写成书出版,并四处讲座,光彩耀人。而今詹妮弗虽然上了年纪,她依然没有低调行事的打算。与此同时,詹妮弗的女儿克里斯蒂(Jamie Bernadette 饰)业已长大成人,并成为知名的模特。某天,母女步出餐厅,偶遇两名粉丝要求签名留念。谁曾想,毫无戒备的母女二人竟被对方劫持。
  原来,对方均是当年被詹妮弗杀掉的青年的家属,特别是领头人的妻子贝基(玛利亚·奥尔森 Maria Olsen 饰)对詹妮弗恨之入骨,她发誓要用最残酷的方式抱负躺在老公及其朋友尸骨上赚钱的詹妮弗……
Video
ID : 1
Format : AVC
Format/Info : Advanced Video Codec
Format profile : [email protected]
Format settings : CABAC / 5 Ref Frames
Format settings, CABAC : Yes
Format settings, Reference frames : 5 frames
Codec ID : V_MPEG4/ISO/AVC
Duration : 2 h 28 min
Bit rate : 5 560 kb/s
Width : 1 280 pixels
Height : 536 pixels
Display aspect ratio : 2.40:1
Frame rate mode : Constant
Frame rate : 23.976 (24000/1001) FPS
Color space : YUV
Chroma subsampling : 4:2:0
Bit depth : 8 bits
Scan type : Progressive
Bits/(Pixel*Frame) : 0.338
Stream size : 5.75 GiB (88%)
Writing library : x264 core 157 r2969 d4099dd
Encoding settings : cabac=1 / ref=5 / deblock=1:-2:-2 / analyse=0x3:0x133 / me=umh / subme=9 / psy=1 / psy_rd=1.00:0.00 / mixed_ref=1 / me_range=16 / chroma_me=1 / trellis=2 / 8x8dct=1 / cqm=0 / deadzone=21,11 / fast_pskip=0 / chroma_qp_offset=-2 / threads=12 / lookahead_threads=1 / sliced_threads=0 / nr=0 / decimate=1 / interlaced=0 / bluray_compat=0 / constrained_intra=0 / bframes=3 / b_pyramid=2 / b_adapt=2 / b_bias=0 / direct=3 / weightb=1 / open_gop=0 / weightp=2 / keyint=240 / keyint_min=23 / scenecut=40 / intra_refresh=0 / rc_lookahead=50 / rc=2pass / mbtree=1 / bitrate=5560 / ratetol=1.0 / qcomp=0.60 / qpmin=0 / qpmax=69 / qpstep=4 / cplxblur=20.0 / qblur=0.5 / vbv_maxrate=62500 / vbv_bufsize=78125 / nal_hrd=none / filler=0 / ip_ratio=1.40 / aq=1:0.70
Default : Yes
Forced : No

Audio
ID : 2
Format : DTS
Format/Info : Digital Theater Systems
Codec ID : A_DTS
Duration : 2 h 28 min
Bit rate mode : Constant
Bit rate : 768 kb/s
Channel(s) : 6 channels
Channel layout : C L R Ls Rs LFE
Sampling rate : 48.0 kHz
Frame rate : 93.750 FPS (512 SPF)
Bit depth : 24 bits
Compression mode : Lossy
Stream size : 814 MiB (12%)
Language : English
Default : Yes
Forced : No

Menu
00:00:00.000 : en:Chapter 01
00:09:58.598 : en:Chapter 02
00:24:04.818 : en:Chapter 03
00:38:47.033 : en:Chapter 04
00:52:12.880 : en:Chapter 05
01:09:52.772 : en:Chapter 06
01:18:10.603 : en:Chapter 07
01:33:06.664 : en:Chapter 08
01:53:30.429 : en:Chapter 09
02:04:16.991 : en:Chapter 10
02:15:08.642 : en:Chapter 11
02:25:58.083 : en:Chapter 12





1 个附件 售价 大小 下载 时间

I.Spit.On.Your.Grave.Deja.Vu.2019.720p.BluRay.x264-CREEPSHOW.torrent 0 金币 33.43K 700 次 1月前

#1楼
发帖时间:2020-02-21 06:54:50   |   回复数:2
chulps
一代宗师
~ 珍惜+支持 ~
1月前 #2楼
911degrees
隐世仙人♂
非常感谢,谢谢分享
1月前 #3楼
游客组