coor
一代宗师

[2016] [欧美] [剧情] [WEB-1080P] 清除伊甸 Erasing.Eden.2016.1080p.WEB-DL.DD5.1.H264-FGT 2.67GB

-->

帖子完整标题:清除伊甸 Erasing.Eden.2016.1080p.WEB-DL.DD5.1.H264-FGT 2.67GB




◎译  名 清除伊甸
◎片  名 Erasing Eden
◎年  代 2016
◎产  地 美国
◎类  别 剧情
◎语  言 英语
◎上映日期 2016-10-15
◎IMDb评分 5.1/10 from 347 users
◎IMDb链接 https://www.imdb.com/title/tt2516326
◎豆瓣评分 0/10 from 0 users
◎豆瓣链接 https://movie.douban.com/subject/26986953/
◎片  长 90分钟
◎导  演 Beth Dewey
◎编  剧 Beth Dewey / Justo Diaz
◎主  演 Breeda Wool
      Ben Rovner


◎标  签 就那样了

◎简  介

  暂无相关剧情介绍
Video
ID : 1
Format : AVC
Format/Info : Advanced Video Codec
Format profile : [email protected]
Format settings : CABAC / 4 Ref Frames
Format settings, CABAC : Yes
Format settings, Reference frames : 4 frames
Codec ID : V_MPEG4/ISO/AVC
Duration : 1 h 10 min
Bit rate : 4 969 kb/s
Width : 1 916 pixels
Height : 1 076 pixels
Display aspect ratio : 16:9
Frame rate mode : Constant
Frame rate : 23.976 (24000/1001) FPS
Color space : YUV
Chroma subsampling : 4:2:0
Bit depth : 8 bits
Scan type : Progressive
Bits/(Pixel*Frame) : 0.101
Stream size : 2.43 GiB (91%)
Title : Erasing.Eden.2016.1080p.WEB-DL.DD5.1.H264-FGT
Language : English
Default : Yes
Forced : No
Color range : Limited
Color primaries : BT.709
Transfer characteristics : BT.709
Matrix coefficients : BT.709

Audio
ID : 2
Format : AC-3
Format/Info : Audio Coding 3
Commercial name : Dolby Digital
Codec ID : A_AC3
Duration : 1 h 10 min
Bit rate mode : Constant
Bit rate : 384 kb/s
Channel(s) : 6 channels
Channel layout : L R C LFE Ls Rs
Sampling rate : 48.0 kHz
Frame rate : 31.250 FPS (1536 SPF)
Bit depth : 16 bits
Compression mode : Lossy
Stream size : 192 MiB (7%)
Title : Erasing.Eden.2016.1080p.WEB-DL.DD5.1.H264-FGT
Language : English
Service kind : Complete Main
Default : Yes
Forced : No

Text
ID : 3
Format : UTF-8
Codec ID : S_TEXT/UTF8
Codec ID/Info : UTF-8 Plain Text
Language : English
Default : Yes
Forced : No

Menu
00:00:00.000 : en:Phoenix Rising
00:06:11.413 : en:Chris Searches
00:13:37.609 : en:Bridesmaids
00:23:03.174 : en:Hospital
00:28:55.568 : en:Subway
00:38:51.163 : en:Church of the Forsaken
00:45:27.267 : en:No Longer Chicken
00:51:21.120 : en:Yes to the Dress
00:58:32.551 : en:Vows
01:04:57.310 : en:R.I.P. Christopher
01:05:58.954 : en:End Credits





1 个附件 售价 大小 下载 时间

Erasing.Eden.2016.1080p.WEB-DL.DD5.1.H264-FGT.torrent 0 金币 27.25K 203 次 1月前

#1楼
发帖时间:2020-02-22 09:20:08   |   回复数:1
911degrees
隐世仙人♂
非常感谢,谢谢分享
1月前 #2楼
游客组