coor
一代宗师

[2015] [欧美] [动作] [WEB-1080P] 香烟汤/反恐使命 Cigarette.Soup.2017.1080p.WEB-DL.DD5.1.H264-FGT 4.34GB

-->

帖子完整标题:香烟汤/反恐使命 Cigarette.Soup.2017.1080p.WEB-DL.DD5.1.H264-FGT 4.34GB




◎译  名 香烟汤 / 反恐使命(台)
◎片  名 Cigarette Soup
◎年  代 2015
◎产  地 美国
◎类  别 动作
◎语  言 英语
◎上映日期 2017-04-10(美国)
◎IMDb评分 6.4/10 from 505 users
◎IMDb链接 https://www.imdb.com/title/tt2920294
◎豆瓣评分 0/10 from 0 users
◎豆瓣链接 https://movie.douban.com/subject/26418567/
◎片  长 108分钟
◎导  演 Damian Voerg
◎编  剧 Damian Voerg
◎主  演 萨曼莎·索尔 Samantha Soule
      Dina Shihabi
      Joe Perrino


◎标  签 阿富汗战争 | 美国电影 | 战争 | 军事 | 伪纪录片 | 战争军事 | 动作 | 剧情

◎简  介

  2006 年,一个有抱负的年轻记者得到了一次机会,得以与一小队驻阿富汗美国士兵一起活动
Video
ID : 1
Format : AVC
Format/Info : Advanced Video Codec
Format profile : [email protected]
Format settings : CABAC / 4 Ref Frames
Format settings, CABAC : Yes
Format settings, Reference frames : 4 frames
Codec ID : V_MPEG4/ISO/AVC
Duration : 1 h 50 min
Bit rate : 5 147 kb/s
Width : 1 904 pixels
Height : 1 080 pixels
Display aspect ratio : 16:9
Frame rate mode : Constant
Frame rate : 23.976 (24000/1001) FPS
Color space : YUV
Chroma subsampling : 4:2:0
Bit depth : 8 bits
Scan type : Progressive
Bits/(Pixel*Frame) : 0.104
Stream size : 3.96 GiB (91%)
Title : Cigarette.Soup.2017.1080p.WEB-DL.DD5.1.H264-FGT
Language : English
Default : Yes
Forced : No
Color range : Limited
Color primaries : BT.709
Transfer characteristics : BT.709
Matrix coefficients : BT.709

Audio
ID : 2
Format : AC-3
Format/Info : Audio Coding 3
Commercial name : Dolby Digital
Codec ID : A_AC3
Duration : 1 h 50 min
Bit rate mode : Constant
Bit rate : 384 kb/s
Channel(s) : 6 channels
Channel layout : L R C LFE Ls Rs
Sampling rate : 48.0 kHz
Frame rate : 31.250 FPS (1536 SPF)
Compression mode : Lossy
Stream size : 303 MiB (7%)
Title : Cigarette.Soup.2017.1080p.WEB-DL.DD5.1.H264-FGT
Language : English
Service kind : Complete Main
Default : Yes
Forced : No

Text
ID : 3
Format : UTF-8
Codec ID : S_TEXT/UTF8
Codec ID/Info : UTF-8 Plain Text
Language : English
Default : Yes
Forced : No

Menu
00:00:00.000 : en:Opening Sequence
00:07:17.000 : en:So What's Going On
00:15:05.000 : en:Guard This Door
00:21:26.000 : en:Out By Tomorrow
00:28:36.000 : en:Not My Type
00:35:41.000 : en:Invade Your Personal Space
00:42:23.000 : en:Billy Gram
00:49:20.000 : en:What's The One Thing
00:57:14.000 : en:Be A Liability
01:04:14.000 : en:Not About Saving Lives
01:11:19.000 : en:Do You Speak English
01:18:35.000 : en:You Ok
01:25:29.000 : en:What Was It Like
01:32:34.000 : en:That Is My Story
01:39:43.000 : en:Where Are They
01:46:11.000 : en:End Credits





1 个附件 售价 大小 下载 时间

Cigarette.Soup.2017.1080p.WEB-DL.DD5.1.H264-FGT.torrent 0 金币 87.50K 245 次 1月前

#1楼
发帖时间:2020-02-22 09:36:15   |   回复数:1
911degrees
隐世仙人♂
非常感谢,谢谢分享
1月前 #2楼
游客组