coor
一代宗师

[2019] [其他] [剧情] [BD-4K] 1917:逆战救兵/一九一七 1917.2019.2160p.BluRay.x265.10bit.SDR.DTS-HD.MA.TrueHD.7.1.Atmos-

-->

帖子完整标题:1917:逆战救兵/一九一七 1917.2019.2160p.BluRay.x265.10bit.SDR.DTS-HD.MA.TrueHD.7.1.Atmos-SWTYBLZ 27.32GB




◎译  名 1917:逆战救兵(港) / 一九一七
◎片  名 1917
◎年  代 2019
◎产  地 美国 / 英国 / 印度 / 西班牙 / 加拿大
◎类  别 剧情 / 战争
◎语  言 英语 / 法语 / 德语
◎上映日期 2019-12-25(美国) / 2020(中国大陆) / 2020-01-10(英国)
◎IMDb评分 8.4/10 from 241078 users
◎IMDb链接 https://www.imdb.com/title/tt8579674
◎豆瓣评分 8.5/10 from 167612 users
◎豆瓣链接 https://movie.douban.com/subject/30252495/
◎片  长 119分钟
◎导  演 萨姆·门德斯 Sam Mendes
◎编  剧 萨姆·门德斯 Sam Mendes / 克里斯蒂·威尔逊-凯恩斯 Krysty Wilson-Cairns
◎主  演 乔治·麦凯 George MacKay
      迪恩·查尔斯·查普曼 Dean-Charles Chapman
      科林·费尔斯 Colin Firth
      本尼迪克特·康伯巴奇 Benedict Cumberbatch
      马克·斯特朗 Mark Strong
      理查德·麦登 Richard Madden
      安德鲁·斯科特 Andrew Scott
      丹尼尔·梅斯 Daniel Mays
      阿德里安·斯卡伯勒 Adrian Scarborough
      约翰·霍林沃思 John Hollingworth
      克里斯·瓦利 Chris Walley
      杰米·帕克 Jamie Parker
      罗伯特?马瑟 Robert Maaser
      贾斯汀·爱德华兹 Justin Edwards
      理查德·麦凯布 Richard McCabe
      理查德·德姆西 Richard Dempsey
      安森·布恩 Anson Boon
      雅各布·詹姆斯·贝西克 Jacob James Beswick
      特蕾莎·马奥尼 Teresa Mahoney
      皮普·卡特 Pip Carter
      保罗·廷托 Paul Tinto
      安迪·阿波罗 Andy Apollo
      约瑟夫·戴维斯 Josef Davies
      比利·波斯特莱斯韦特 Billy Postlethwaite
      加布里埃尔·阿库乌迪克 Gabriel Akuwudike
      斯派克·莱顿 Spike Leighton
      亚当·赫吉尔 Adam Hugill
      纳巴汉·里兹万 Nabhaan Rizwan
      克莱尔·迪比尔克 Claire Duburcq
      乔纳·罗素 Jonah Russell
      迈克尔·吉普森 Michael Jibson
      格伦·霍威尔 Gerran Howell


◎标  签 战争 | 一战 | 英国 | 剧情 | 2019 | 美国 | 萨姆·门德斯 | 科林·费斯

◎简  介

  1917年,第一次世界大战进入最激烈之际,两个年仅16岁的英国士兵接到的命令,需立即赶往死亡前线,向那里的将军传达一个“立刻停止进攻”讯息。 时间只有八小时,武器弹药有限,无人知晓前方敌况:死亡寂静之地、布满尸体的铁丝网、突入其来的敌军、随时毙命的危险境况…… 这一次两个少年为救1600个人的性命,不完成,毋宁死!

◎获奖情况

  第92届奥斯卡金像奖(2020)
  最佳影片(提名) 皮帕·哈里斯 / 萨姆·门德斯 / 卡勒姆·麦克道格拉斯 / 杰恩-安·腾格伦
  最佳导演(提名) 萨姆·门德斯
  最佳原创剧本(提名) 萨姆·门德斯 / 克里斯蒂·威尔逊-凯恩斯
  最佳摄影 罗杰·狄金斯
  最佳视觉效果 纪尧姆·罗什龙 / Greg Butler / 多米尼克·多伊
  最佳混音 马克·泰勒 / 斯图尔特·威尔逊
  最佳音效剪辑(提名)
  最佳艺术指导(提名)
  最佳化妆与发型设计(提名)
  最佳原创配乐(提名) 托马斯·纽曼

  第77届金球奖(2020)
  电影类 最佳剧情片
  电影类 最佳导演 萨姆·门德斯
  电影类 最佳原创配乐(提名) 托马斯·纽曼

  第73届英国电影学院奖(2020)
  电影奖 最佳影片
  电影奖 最佳英国影片
  电影奖 最佳导演 萨姆·门德斯
  电影奖 最佳摄影 罗杰·狄金斯
  电影奖 最佳化妆/发型(提名) 内奥米·多恩
  电影奖 最佳艺术指导 李·桑多斯 / 丹尼斯·加斯纳
  电影奖 最佳特殊视觉效果
  电影奖 最佳原创配乐(提名) 托马斯·纽曼
  电影奖 最佳音效

  第72届美国导演工会奖(2020)
  最佳电影导演 萨姆·门德斯

  第72届美国编剧工会奖(2020)
  电影奖 最佳原创剧本(提名) 萨姆·门德斯 / 克里斯蒂·威尔逊-凯恩斯

  第31届美国制片人工会奖(2020)
  最佳电影制片人奖

  第34届美国摄影协会奖(2020)
  电影长片最佳摄影(提名) 罗杰·狄金斯

  第24届美国艺术指导工会奖(2020)
  电影奖 最佳历史电影艺术指导(提名) 丹尼斯·加斯纳

  第67届美国音效剪辑协会奖(2020)
  金卷轴奖 最佳电影音效剪辑(提名)
  金卷轴奖 最佳电影对白剪辑

  第18届美国视觉效果协会奖(2020)
  最佳电影辅助视觉效果(提名)

  第91届美国国家评论协会奖(2019)
  最佳摄影 罗杰·狄金斯
  年度佳片

  第25届美国评论家选择电影奖(2020)
  最佳影片(提名)
  最佳导演 萨姆·门德斯
  最佳动作片(提名)
  最佳摄影
  最佳剪辑
  最佳配乐(提名)
  最佳美术指导(提名)
  最佳视觉效果(提名)

  第20届美国电影学会奖(2019)
  年度佳片

  第24届金卫星奖(2020)
  电影部门 最佳剧情片(提名)
  电影部门 最佳导演(提名) 萨姆·门德斯
  电影部门 剧情片最佳男主角(提名) 乔治·麦凯
  电影部门 最佳原创配乐(提名)
  电影部门 最佳摄影
  电影部门 最佳剪辑(提名)
  电影部门 最佳音效(提名)
  电影部门 最佳美术指导(提名)

  第18届华盛顿影评人协会奖(2019)
  最佳摄影

  第40届伦敦影评人协会奖(2020)
  年度电影(提名)
  年度导演(提名) 萨姆·门德斯
  年度英国/爱尔兰电影(提名)
  年度英国/爱尔兰男演员(提名) 乔治·麦凯
  年度英国/爱尔兰小演员(提名) 迪恩·查尔斯·查普曼
  技术成就奖(提名) 奥利弗·塔尔尼

  第45届洛杉矶影评人协会奖(2019)
  最佳摄影(提名)
  最佳配乐(提名)

  第32届芝加哥影评人协会奖(2019)
  最佳摄影(提名) 罗杰·狄金斯
  最佳剪辑(提名)
  最佳原创配乐(提名) 托马斯·纽曼
  最佳视觉效果(提名)
  最佳艺术指导(提名)

  第4届亚特兰大影评人协会奖(2019)
  十佳影片
  最佳摄影 罗杰·狄金斯
  最佳原创配乐 托马斯·纽曼

  第23届美国在线影评人协会奖(2020)
  最佳影片(提名)
  最佳导演(提名) 萨姆·门德斯
  最佳剪辑(提名) 李·史密斯
  最佳原创配乐(提名) 托马斯·纽曼
  最佳摄影 罗杰·狄金斯
Video
ID : 1
Format : HEVC
Format/Info : High Efficiency Video Coding
Format profile : Main [email protected]@High
Codec ID : V_MPEGH/ISO/HEVC
Duration : 1 h 58 min
Bit rate : 24.5 Mb/s
Width : 3 840 pixels
Height : 1 606 pixels
Display aspect ratio : 2.40:1
Frame rate mode : Constant
Frame rate : 23.976 (24000/1001/189150) FPS
Color space : YUV
Chroma subsampling : 4:2:0
Bit depth : 10 bits
Bits/(Pixel*Frame) : 0.166
Stream size : 20.4 GiB (75%)
Title : 1917.2019.2160p.BluRay.x265.10bit.SDR.DTS-HD.MA.TrueHD.7.1.Atmos-SWTYBLZ
Writing library : x265 3.0ed72af837053:[Windows][GCC 8.2.0][64 bit] 10bit
Encoding settings : cpuid=1111039 / frame-threads=6 / numa-pools=40 / wpp / no-pmode / no-pme / no-psnr / no-ssim / log-level=2 / input-csp=1 / input-res=3840x1606 / interlace=0 / total-frames=171176 / level-idc=51 / high-tier=1 / uhd-bd=0 / ref=3 / no-allow-non-conformance / repeat-headers / annexb / aud / hrd / info / hash=0 / no-temporal-layers / no-open-gop / min-keyint=1 / keyint=24 / gop-lookahead=0 / bframes=4 / b-adapt=2 / b-pyramid / bframe-bias=0 / rc-lookahead=25 / lookahead-slices=4 / scenecut=40 / radl=0 / no-splice / no-intra-refresh / ctu=64 / min-cu-size=8 / no-rect / no-amp / max-tu-size=32 / tu-inter-depth=1 / tu-intra-depth=1 / limit-tu=0 / rdoq-level=0 / dynamic-rd=0.00 / no-ssim-rd / signhide / no-tskip / nr-intra=0 / nr-inter=0 / no-constrained-intra / strong-intra-smoothing / max-merge=2 / limit-refs=3 / no-limit-modes / me=1 / subme=2 / merange=57 / temporal-mvp / weightp / no-weightb / no-analyze-src-pics / deblock=0:0 / no-sao / no-sao-non-deblock / rd=3 / no-early-skip / rskip / no-fast-intra / no-tskip-fast / no-cu-lossless / no-b-intra / no-splitrd-skip / rdpenalty=0 / psy-rd=2.00 / psy-rdoq=0.00 / no-rd-refine / no-lossless / cbqpoffs=0 / crqpoffs=0 / rc=crf / crf=16.0 / qcomp=0.60 / qpstep=4 / stats-write=0 / stats-read=0 / vbv-maxrate=160000 / vbv-bufsize=160000 / vbv-init=0.9 / crf-max=0.0 / crf-min=0.0 / ipratio=1.40 / pbratio=1.30 / aq-mode=1 / aq-strength=1.00 / cutree / zone-count=0 / no-strict-cbr / qg-size=32 / no-rc-grain / qpmax=69 / qpmin=0 / no-const-vbv / sar=1 / overscan=0 / videoformat=5 / range=0 / colorprim=2 / transfer=2 / colormatrix=2 / chromaloc=0 / display-window=0 / max-cll=0,0 / min-luma=0 / max-luma=1023 / log2-max-poc-lsb=8 / vui-timing-info / vui-hrd-info / slices=1 / opt-qp-pps / opt-ref-list-length-pps / no-multi-pass-opt-rps / scenecut-bias=0.05 / no-opt-cu-delta-qp / no-aq-motion / no-hdr / no-hdr-opt / no-dhdr10-opt / no-idr-recovery-sei / analysis-reuse-level=5 / scale-factor=0 / refine-intra=0 / refine-inter=0 / refine-mv=0 / refine-ctu-distortion=0 / no-limit-sao / ctu-info=0 / no-lowpass-dct / refine-analysis-type=0 / copy-pic=1 / max-ausize-factor=1.0 / no-dynamic-refine / no-single-sei / no-hevc-aq / qp-adaptation-range=1.00
Default : Yes
Forced : No

Audio #1
ID : 2
Format : MLP FBA 16-ch
Format/Info : Meridian Lossless Packing FBA with 16-channel presentation
Commercial name : Dolby TrueHD with Dolby Atmos
Codec ID : A_TRUEHD
Duration : 1 h 58 min
Bit rate mode : Variable
Bit rate : 3 810 kb/s
Maximum bit rate : 7 158 kb/s
Channel(s) : 8 channels
Channel layout : L R C LFE Ls Rs Lb Rb
Sampling rate : 48.0 kHz
Frame rate : 1 200.000 FPS (40 SPF)
Compression mode : Lossless
Stream size : 3.17 GiB (12%)
Title : 1917.2019.2160p.BluRay.x265.10bit.SDR.DTS-HD.MA.TrueHD.7.1.Atmos-SWTYBLZ
Language : English
Default : Yes
Forced : No
Number of dynamic objects : 11
Bed channel count : 1 channel
Bed channel configuration : LFE

Audio #2
ID : 3
Format : DTS XLL
Format/Info : Digital Theater Systems
Commercial name : DTS-HD Master Audio
Codec ID : A_DTS
Duration : 1 h 58 min
Bit rate mode : Variable
Bit rate : 3 815 kb/s
Channel(s) : 8 channels
Channel layout : C L R LFE Lb Rb Lss Rss
Sampling rate : 48.0 kHz
Frame rate : 93.750 FPS (512 SPF)
Bit depth : 24 bits
Compression mode : Lossless
Stream size : 3.17 GiB (12%)
Title : 1917.2019.2160p.BluRay.x265.10bit.SDR.DTS-HD.MA.TrueHD.7.1.Atmos-SWTYBLZ
Language : English
Default : No
Forced : No

Audio #3
ID : 4
Format : AC-3
Format/Info : Audio Coding 3
Commercial name : Dolby Digital
Codec ID : A_AC3
Duration : 1 h 58 min
Bit rate mode : Constant
Bit rate : 448 kb/s
Channel(s) : 6 channels
Channel layout : L R C LFE Ls Rs
Sampling rate : 48.0 kHz
Frame rate : 31.250 FPS (1536 SPF)
Compression mode : Lossy
Stream size : 381 MiB (1%)
Title : 1917.2019.2160p.BluRay.x265.10bit.SDR.DTS-HD.MA.TrueHD.7.1.Atmos-SWTYBLZ
Language : English
Service kind : Complete Main
Default : No
Forced : No

Text #1
ID : 5
Format : UTF-8
Codec ID : S_TEXT/UTF8
Codec ID/Info : UTF-8 Plain Text
Duration : 1 h 45 min
Bit rate : 34 b/s
Count of elements : 934
Stream size : 26.8 KiB (0%)
Title : English-SRT
Language : English
Default : Yes
Forced : No

Text #2
ID : 6
Format : PGS
Muxing mode : zlib
Codec ID : S_HDMV/PGS
Codec ID/Info : Picture based subtitle format used on BDs/HD-DVDs
Duration : 1 h 45 min
Bit rate : 28.0 kb/s
Count of elements : 2202
Stream size : 21.2 MiB (0%)
Title : English-SDH-PGS
Language : English
Default : No
Forced : No

Text #3
ID : 7
Format : PGS
Muxing mode : zlib
Codec ID : S_HDMV/PGS
Codec ID/Info : Picture based subtitle format used on BDs/HD-DVDs
Duration : 1 h 57 min
Bit rate : 22.7 kb/s
Count of elements : 1888
Stream size : 19.1 MiB (0%)
Title : French-PGS
Language : French
Default : No
Forced : No

Text #4
ID : 8
Format : PGS
Muxing mode : zlib
Codec ID : S_HDMV/PGS
Codec ID/Info : Picture based subtitle format used on BDs/HD-DVDs
Duration : 1 h 57 min
Bit rate : 21.3 kb/s
Count of elements : 2022
Stream size : 17.9 MiB (0%)
Title : Spanish-PGS
Language : Spanish
Default : No
Forced : No

Menu
00:00:00.000 : en:Chapter 01
00:05:00.425 : en:Chapter 02
00:08:20.375 : en:Chapter 03
00:13:27.640 : en:Chapter 04
00:16:39.790 : en:Chapter 05
00:23:33.495 : en:Chapter 06
00:30:29.661 : en:Chapter 07
00:35:35.550 : en:Chapter 08
00:42:26.377 : en:Chapter 09
00:51:35.092 : en:Chapter 10
00:56:37.311 : en:Chapter 11
01:02:30.080 : en:Chapter 12
01:06:34.574 : en:Chapter 13
01:12:05.321 : en:Chapter 14
01:19:46.198 : en:Chapter 15
01:28:48.823 : en:Chapter 16
01:33:44.452 : en:Chapter 17
01:38:12.595 : en:Chapter 18
01:41:44.682 : en:Chapter 19
01:49:47.581 : en:Chapter 20





1 个附件 售价 大小 下载 时间

1917.2019.2160p.BluRay.x265.10bit.SDR.DTS-HD.MA.TrueHD.7.1.Atmos-SWTYBLZ.torrent 0 金币 68.94K 2373 次 1月前

#1楼
发帖时间:2020-04-02 02:15:56   |   回复数:2
911degrees
隐世仙人♂
非常感谢,谢谢分享
1月前 #2楼
jokingcheung
一代宗师
谢谢分享
1月前 #3楼
游客组