coor
一代宗师

[2019] [其他] [剧情] [BD-4K] 哪吒之魔童降世 Ne.Zha.2019.CHINESE.2160p.BluRay.x264.8bit.SDR.DTS-HD.MA.5.1-SWTYBLZ 26.

-->

帖子完整标题:哪吒之魔童降世 Ne.Zha.2019.CHINESE.2160p.BluRay.x264.8bit.SDR.DTS-HD.MA.5.1-SWTYBLZ 26.91GB




◎译  名 Ne Zha / Nezha: Birth of the Demon Child / 哪吒降世
◎片  名 哪吒之魔童降世
◎年  代 2019
◎产  地 中国大陆
◎类  别 剧情 / 喜剧 / 动画 / 奇幻
◎语  言 汉语普通话
◎上映日期 2019-07-13(大规模点映) / 2019-07-26(中国大陆)
◎IMDb评分 7.6/10 from 3152 users
◎IMDb链接 https://www.imdb.com/title/tt10627720
◎豆瓣评分 8.5/10 from 1337873 users
◎豆瓣链接 https://movie.douban.com/subject/26794435/
◎片  长 110分钟
◎导  演 饺子 Yu Yang
◎编  剧 饺子 Yu Yang / 易巧 Qiao Yi / 魏芸芸 Yunyun Wei
◎主  演 吕艳婷 Yanting Lü
      囧森瑟夫 Joseph
      瀚墨 Mo Han
      陈浩 Hao Chen
      绿绮 Qi Lü
      张珈铭 Jiaming Zhang
      杨卫 Wei Yang


◎标  签 动画 | 哪吒 | 中国大陆 | 神话 | 成长 | 亲情 | 2019 | 搞笑

◎简  介

  天地灵气孕育出一颗能量巨大的混元珠,元始天尊将混元珠提炼成灵珠和魔丸,灵珠投胎为人,助周伐纣时可堪大用;而魔丸则会诞出魔王,为祸人间。元始天尊启动了天劫咒语,3年后天雷将会降临,摧毁魔丸。太乙受命将灵珠托生于陈塘关李靖家的儿子哪吒身上。然而阴差阳错,灵珠和魔丸竟然被掉包。本应是灵珠英雄的哪吒却成了混世大魔王。调皮捣蛋顽劣不堪的哪吒却徒有一颗做英雄的心。然而面对众人对魔丸的误解和即将来临的天雷的降临,哪吒是否命中注定会立地成魔?他将何去何从?

◎获奖情况

  第6届豆瓣电影年度榜单(2019)
  评分最高的华语电影
  最受关注的院线电影(提名)
  评分最高的动画片
Video
ID : 1
Format : AVC
Format/Info : Advanced Video Codec
Format profile : [email protected]
Format settings : CABAC / 7 Ref Frames
Format settings, CABAC : Yes
Format settings, Reference frames : 7 frames
Codec ID : V_MPEG4/ISO/AVC
Duration : 1 h 50 min
Bit rate : 21.2 Mb/s
Width : 3 840 pixels
Height : 1 608 pixels
Display aspect ratio : 2.40:1
Frame rate mode : Constant
Frame rate : 24.000 FPS
Color space : YUV
Chroma subsampling : 4:2:0
Bit depth : 8 bits
Scan type : Progressive
Bits/(Pixel*Frame) : 0.143
Stream size : 16.3 GiB (61%)
Title : Ne.Zha.2019.CHINESE.2160p.BluRay.x264.8bit.SDR.DTS-HD.MA.5.1-SWTYBLZ
Writing library : x264 core 157 r2935 545de2f
Encoding settings : cabac=1 / ref=7 / deblock=1:1:1 / analyse=0x3:0x113 / me=umh / subme=10 / psy=1 / psy_rd=0.40:0.00 / mixed_ref=1 / me_range=48 / chroma_me=1 / trellis=2 / 8x8dct=1 / cqm=0 / deadzone=21,11 / fast_pskip=1 / chroma_qp_offset=-2 / threads=36 / lookahead_threads=4 / sliced_threads=0 / nr=0 / decimate=0 / interlaced=0 / bluray_compat=0 / constrained_intra=0 / bframes=5 / b_pyramid=2 / b_adapt=2 / b_bias=0 / direct=3 / weightb=1 / open_gop=0 / weightp=2 / keyint=250 / keyint_min=24 / scenecut=40 / intra_refresh=0 / rc_lookahead=50 / rc=crf / mbtree=1 / crf=14.0 / qcomp=0.60 / qpmin=0 / qpmax=69 / qpstep=4 / ip_ratio=1.40 / aq=1:0.60
Default : Yes
Forced : No

Audio #1
ID : 2
Format : DTS XLL
Format/Info : Digital Theater Systems
Commercial name : DTS-HD Master Audio
Codec ID : A_DTS
Duration : 1 h 50 min
Bit rate mode : Variable
Bit rate : 2 455 kb/s
Channel(s) : 6 channels
Channel layout : C L R Ls Rs LFE
Sampling rate : 48.0 kHz
Frame rate : 93.750 FPS (512 SPF)
Bit depth : 16 bits
Compression mode : Lossless
Stream size : 1.89 GiB (7%)
Title : Ne.Zha.2019.CHINESE.2160p.BluRay.x264.8bit.SDR.DTS-HD.MA.5.1-SWTYBLZ
Language : Chinese
Default : Yes
Forced : No

Audio #2
ID : 3
Format : AC-3
Format/Info : Audio Coding 3
Commercial name : Dolby Digital
Codec ID : A_AC3
Duration : 1 h 50 min
Bit rate mode : Constant
Bit rate : 640 kb/s
Channel(s) : 6 channels
Channel layout : L R C LFE Ls Rs
Sampling rate : 48.0 kHz
Frame rate : 31.250 FPS (1536 SPF)
Compression mode : Lossy
Stream size : 504 MiB (2%)
Title : Ne.Zha.2019.CHINESE.2160p.BluRay.x264.8bit.SDR.DTS-HD.MA.5.1-SWTYBLZ
Language : Chinese
Service kind : Complete Main
Default : No
Forced : No

Audio #3
ID : 4
Format : MLP FBA 16-ch
Format/Info : Meridian Lossless Packing FBA with 16-channel presentation
Commercial name : Dolby TrueHD with Dolby Atmos
Codec ID : A_TRUEHD
Duration : 1 h 50 min
Bit rate mode : Variable
Bit rate : 5 055 kb/s
Maximum bit rate : 8 640 kb/s
Channel(s) : 8 channels
Channel layout : L R C LFE Ls Rs Lb Rb
Sampling rate : 48.0 kHz
Frame rate : 1 200.000 FPS (40 SPF)
Compression mode : Lossless
Stream size : 3.89 GiB (15%)
Title : Ne.Zha.2019.CHINESE.2160p.BluRay.x264.8bit.SDR.DTS-HD.MA.5.1-SWTYBLZ
Language : English
Default : No
Forced : No
Number of dynamic objects : 11
Bed channel count : 1 channel
Bed channel configuration : LFE

Audio #4
ID : 5
Format : DTS XLL
Format/Info : Digital Theater Systems
Commercial name : DTS-HD Master Audio
Codec ID : A_DTS
Duration : 1 h 50 min
Bit rate mode : Variable
Bit rate : 4 748 kb/s
Channel(s) : 8 channels
Channel layout : C L R LFE Lb Rb Lss Rss
Sampling rate : 48.0 kHz
Frame rate : 93.750 FPS (512 SPF)
Bit depth : 24 bits
Compression mode : Lossless
Stream size : 3.65 GiB (14%)
Title : Ne.Zha.2019.CHINESE.2160p.BluRay.x264.8bit.SDR.DTS-HD.MA.5.1-SWTYBLZ
Language : English
Default : No
Forced : No

Audio #5
ID : 6
Format : AC-3
Format/Info : Audio Coding 3
Commercial name : Dolby Digital
Codec ID : A_AC3
Duration : 1 h 50 min
Bit rate mode : Constant
Bit rate : 640 kb/s
Channel(s) : 6 channels
Channel layout : L R C LFE Ls Rs
Sampling rate : 48.0 kHz
Frame rate : 31.250 FPS (1536 SPF)
Compression mode : Lossy
Stream size : 504 MiB (2%)
Title : Ne.Zha.2019.CHINESE.2160p.BluRay.x264.8bit.SDR.DTS-HD.MA.5.1-SWTYBLZ
Language : English
Service kind : Complete Main
Default : No
Forced : No

Text #1
ID : 7
Format : UTF-8
Codec ID : S_TEXT/UTF8
Codec ID/Info : UTF-8 Plain Text
Duration : 1 h 47 min
Bit rate : 47 b/s
Count of elements : 1230
Stream size : 37.4 KiB (0%)
Title : English-SRT
Language : English
Default : Yes
Forced : Yes

Text #2
ID : 8
Format : UTF-8
Codec ID : S_TEXT/UTF8
Codec ID/Info : UTF-8 Plain Text
Duration : 1 h 42 min
Bit rate : 0 b/s
Count of elements : 14
Stream size : 309 Bytes (0%)
Title : English-FOREIGN-SRT
Language : English
Default : No
Forced : No

Text #3
ID : 9
Format : PGS
Muxing mode : zlib
Codec ID : S_HDMV/PGS
Codec ID/Info : Picture based subtitle format used on BDs/HD-DVDs
Duration : 1 h 47 min
Bit rate : 35.2 kb/s
Count of elements : 2451
Stream size : 27.2 MiB (0%)
Title : English-PGS
Language : English
Default : No
Forced : No

Text #4
ID : 10
Format : PGS
Muxing mode : zlib
Codec ID : S_HDMV/PGS
Codec ID/Info : Picture based subtitle format used on BDs/HD-DVDs
Duration : 1 h 47 min
Bit rate : 47.2 kb/s
Count of elements : 2940
Stream size : 36.4 MiB (0%)
Title : English-SDH-PGS
Language : English
Default : No
Forced : No

Text #5
ID : 11
Format : PGS
Muxing mode : zlib
Codec ID : S_HDMV/PGS
Codec ID/Info : Picture based subtitle format used on BDs/HD-DVDs
Duration : 1 h 42 min
Bit rate : 369 b/s
Count of elements : 28
Stream size : 278 KiB (0%)
Title : English-FORCED-PGS
Language : English
Default : No
Forced : Yes

Text #6
ID : 12
Format : PGS
Muxing mode : zlib
Codec ID : S_HDMV/PGS
Codec ID/Info : Picture based subtitle format used on BDs/HD-DVDs
Duration : 1 h 47 min
Bit rate : 25.9 kb/s
Count of elements : 2416
Stream size : 20.0 MiB (0%)
Title : Chinese-PGS
Language : Chinese
Default : No
Forced : No

Menu
00:00:00.000 : en:Chapter 01
00:05:56.458 : en:Chapter 02
00:15:39.958 : en:Chapter 03
00:25:46.125 : en:Chapter 04
00:35:42.875 : en:Chapter 05
00:41:50.208 : en:Chapter 06
00:52:11.833 : en:Chapter 07
01:00:58.917 : en:Chapter 08
01:08:17.250 : en:Chapter 09
01:16:35.167 : en:Chapter 10
01:24:05.667 : en:Chapter 11
01:43:22.500 : en:Chapter 12





1 个附件 售价 大小 下载 时间

Ne.Zha.2019.CHINESE.2160p.BluRay.x264.8bit.SDR.DTS-HD.MA.5.1-SWTYBLZ.torrent 0 金币 67.90K 735 次 1月前

#1楼
发帖时间:2020-04-02 02:27:55   |   回复数:3
911degrees
隐世仙人♂
非常感谢,谢谢分享
1月前 #2楼
jokingcheung
一代宗师
谢谢分享
1月前 #3楼
pwolves
武林盟主
谢谢分享
1月前 #4楼
游客组