coor
一代宗师

[2019] [其他] [剧情] [BD-4K] 哪吒之魔童降世 Ne.Zha.2019.CHINESE.2160p.UHD.BluRay.X265.10bit.HDR.DTS-HD.MA.5.1-WhiteR

-->

帖子完整标题:哪吒之魔童降世 Ne.Zha.2019.CHINESE.2160p.UHD.BluRay.X265.10bit.HDR.DTS-HD.MA.5.1-WhiteRhino 11.37GB




◎译  名 Ne Zha / Nezha: Birth of the Demon Child / 哪吒降世
◎片  名 哪吒之魔童降世
◎年  代 2019
◎产  地 中国大陆
◎类  别 剧情 / 喜剧 / 动画 / 奇幻
◎语  言 汉语普通话
◎上映日期 2019-07-13(大规模点映) / 2019-07-26(中国大陆)
◎IMDb评分 7.6/10 from 3152 users
◎IMDb链接 https://www.imdb.com/title/tt10627720
◎豆瓣评分 8.5/10 from 1337873 users
◎豆瓣链接 https://movie.douban.com/subject/26794435/
◎片  长 110分钟
◎导  演 饺子 Yu Yang
◎编  剧 饺子 Yu Yang / 易巧 Qiao Yi / 魏芸芸 Yunyun Wei
◎主  演 吕艳婷 Yanting Lü
      囧森瑟夫 Joseph
      瀚墨 Mo Han
      陈浩 Hao Chen
      绿绮 Qi Lü
      张珈铭 Jiaming Zhang
      杨卫 Wei Yang


◎标  签 动画 | 哪吒 | 中国大陆 | 神话 | 成长 | 亲情 | 2019 | 搞笑

◎简  介

  天地灵气孕育出一颗能量巨大的混元珠,元始天尊将混元珠提炼成灵珠和魔丸,灵珠投胎为人,助周伐纣时可堪大用;而魔丸则会诞出魔王,为祸人间。元始天尊启动了天劫咒语,3年后天雷将会降临,摧毁魔丸。太乙受命将灵珠托生于陈塘关李靖家的儿子哪吒身上。然而阴差阳错,灵珠和魔丸竟然被掉包。本应是灵珠英雄的哪吒却成了混世大魔王。调皮捣蛋顽劣不堪的哪吒却徒有一颗做英雄的心。然而面对众人对魔丸的误解和即将来临的天雷的降临,哪吒是否命中注定会立地成魔?他将何去何从?

◎获奖情况

  第6届豆瓣电影年度榜单(2019)
  评分最高的华语电影
  最受关注的院线电影(提名)
  评分最高的动画片
Video
ID : 1
Format : HEVC
Format/Info : High Efficiency Video Coding
Format profile : Main [email protected]@High
HDR format : SMPTE ST 2086, HDR10 compatible
Codec ID : V_MPEGH/ISO/HEVC
Duration : 1 h 50 min
Bit rate : 6 359 kb/s
Width : 3 840 pixels
Height : 1 608 pixels
Display aspect ratio : 2.40:1
Frame rate mode : Constant
Frame rate : 24.000 FPS
Color space : YUV
Chroma subsampling : 4:2:0 (Type 2)
Bit depth : 10 bits
Bits/(Pixel*Frame) : 0.043
Stream size : 4.89 GiB (43%)
Writing library : x265 3.3gbe2d82093:[Windows][GCC 10.0.1][64 bit] 10bit
Encoding settings : cpuid=1111039 / frame-threads=5 / numa-pools=36 / wpp / no-pmode / no-pme / no-psnr / no-ssim / log-level=2 / input-csp=1 / input-res=3840x1608 / interlace=0 / total-frames=158580 / level-idc=51 / high-tier=1 / uhd-bd=0 / ref=4 / no-allow-non-conformance / repeat-headers / annexb / aud / hrd / info / hash=0 / no-temporal-layers / no-open-gop / min-keyint=1 / keyint=24 / gop-lookahead=0 / bframes=4 / b-adapt=2 / b-pyramid / bframe-bias=0 / rc-lookahead=25 / lookahead-slices=4 / scenecut=40 / hist-scenecut=0 / radl=0 / no-splice / no-intra-refresh / ctu=64 / min-cu-size=8 / rect / no-amp / max-tu-size=32 / tu-inter-depth=1 / tu-intra-depth=1 / limit-tu=0 / rdoq-level=2 / dynamic-rd=0.00 / no-ssim-rd / signhide / no-tskip / nr-intra=0 / nr-inter=0 / no-constrained-intra / no-strong-intra-smoothing / max-merge=3 / limit-refs=3 / limit-modes / me=3 / subme=3 / merange=57 / temporal-mvp / no-frame-dup / no-hme / weightp / no-weightb / no-analyze-src-pics / deblock=-3:-3 / no-sao / no-sao-non-deblock / rd=4 / selective-sao=0 / no-early-skip / rskip / no-fast-intra / no-tskip-fast / no-cu-lossless / no-b-intra / no-splitrd-skip / rdpenalty=0 / psy-rd=2.00 / psy-rdoq=1.00 / no-rd-refine / no-lossless / cbqpoffs=0 / crqpoffs=0 / rc=crf / crf=17.0 / qcomp=0.60 / qpstep=4 / stats-write=0 / stats-read=0 / vbv-maxrate=160000 / vbv-bufsize=160000 / vbv-init=0.9 / crf-max=0.0 / crf-min=0.0 / ipratio=1.40 / pbratio=1.30 / aq-mode=2 / aq-strength=1.00 / cutree / zone-count=0 / no-strict-cbr / qg-size=32 / no-rc-grain / qpmax=69 / qpmin=0 / no-const-vbv / sar=1 / overscan=0 / videoformat=5 / range=0 / colorprim=9 / transfer=16 / colormatrix=9 / chromaloc=1 / chromaloc-top=2 / chromaloc-bottom=2 / display-window=0 / master-display=G(8500,39850)B(6550,2300)R(35400,14600)WP(15635,16450)L(10000000,1) / cll=684,400 / min-luma=0 / max-luma=1023 / log2-max-poc-lsb=8 / vui-timing-info / vui-hrd-info / slices=1 / no-opt-qp-pps / no-opt-ref-list-length-pps / no-multi-pass-opt-rps / scenecut-bias=0.05 / hist-threshold=0.01 / no-opt-cu-delta-qp / no-aq-motion / hdr10 / hdr10-opt / no-dhdr10-opt / no-idr-recovery-sei / analysis-reuse-level=0 / analysis-save-reuse-level=0 / analysis-load-reuse-level=0 / scale-factor=0 / refine-intra=0 / refine-inter=0 / refine-mv=1 / refine-ctu-distortion=0 / no-limit-sao / ctu-info=0 / no-lowpass-dct / refine-analysis-type=0 / copy-pic=1 / max-ausize-factor=1.0 / no-dynamic-refine / no-single-sei / no-hevc-aq / no-svt / no-field / qp-adaptation-range=1.00 / no-scenecut-aware-qpconformance-window-offsets / right=0 / bottom=0
Default : Yes
Forced : No
Color range : Limited
Color primaries : BT.2020
Transfer characteristics : PQ
Matrix coefficients : BT.2020 non-constant
Mastering display color primaries : BT.2020
Mastering display luminance : min: 0.0001 cd/m2, max: 1000 cd/m2
Maximum Content Light Level : 684 cd/m2
Maximum Frame-Average Light Level : 400 cd/m2

Audio #1
ID : 2
Format : DTS XLL
Format/Info : Digital Theater Systems
Commercial name : DTS-HD Master Audio
Codec ID : A_DTS
Duration : 1 h 50 min
Bit rate mode : Variable
Bit rate : 2 455 kb/s
Channel(s) : 6 channels
Channel layout : C L R Ls Rs LFE
Sampling rate : 48.0 kHz
Frame rate : 93.750 FPS (512 SPF)
Bit depth : 16 bits
Compression mode : Lossless
Stream size : 1.89 GiB (17%)
Language : Chinese
Default : Yes
Forced : No

Audio #2
ID : 3
Format : MLP FBA 16-ch
Format/Info : Meridian Lossless Packing FBA with 16-channel presentation
Commercial name : Dolby TrueHD with Dolby Atmos
Codec ID : A_TRUEHD
Duration : 1 h 50 min
Bit rate mode : Variable
Bit rate : 5 055 kb/s
Maximum bit rate : 8 640 kb/s
Channel(s) : 8 channels
Channel layout : L R C LFE Ls Rs Lb Rb
Sampling rate : 48.0 kHz
Frame rate : 1 200.000 FPS (40 SPF)
Compression mode : Lossless
Stream size : 3.89 GiB (35%)
Language : English
Default : No
Forced : No
Number of dynamic objects : 11
Bed channel count : 1 channel
Bed channel configuration : LFE

Audio #3
ID : 4
Format : AC-3
Format/Info : Audio Coding 3
Commercial name : Dolby Digital
Codec ID : A_AC3
Duration : 1 h 50 min
Bit rate mode : Constant
Bit rate : 640 kb/s
Channel(s) : 6 channels
Channel layout : L R C LFE Ls Rs
Sampling rate : 48.0 kHz
Frame rate : 31.250 FPS (1536 SPF)
Compression mode : Lossy
Stream size : 504 MiB (4%)
Language : English
Service kind : Complete Main
Default : No
Forced : No

Text #1
ID : 5
Format : UTF-8
Codec ID : S_TEXT/UTF8
Codec ID/Info : UTF-8 Plain Text
Duration : 1 h 47 min
Bit rate : 47 b/s
Count of elements : 1229
Stream size : 37.3 KiB (0%)
Title : English subs for Chinese audio
Language : English
Default : Yes
Forced : No

Text #2
ID : 6
Format : PGS
Muxing mode : zlib
Codec ID : S_HDMV/PGS
Codec ID/Info : Picture based subtitle format used on BDs/HD-DVDs
Duration : 1 h 47 min
Bit rate : 35.2 kb/s
Count of elements : 2451
Stream size : 27.2 MiB (0%)
Title : English subs for Chinese audio
Language : English
Default : No
Forced : No

Text #3
ID : 7
Format : UTF-8
Codec ID : S_TEXT/UTF8
Codec ID/Info : UTF-8 Plain Text
Duration : 1 h 42 min
Bit rate : 0 b/s
Count of elements : 14
Stream size : 309 Bytes (0%)
Title : English Forced subs for English audio
Language : English
Default : No
Forced : No

Text #4
ID : 8
Format : PGS
Muxing mode : zlib
Codec ID : S_HDMV/PGS
Codec ID/Info : Picture based subtitle format used on BDs/HD-DVDs
Duration : 1 h 42 min
Bit rate : 369 b/s
Count of elements : 28
Stream size : 278 KiB (0%)
Title : English Forced subs for English audio
Language : English
Default : No
Forced : No

Text #5
ID : 9
Format : UTF-8
Codec ID : S_TEXT/UTF8
Codec ID/Info : UTF-8 Plain Text
Duration : 1 h 47 min
Bit rate : 48 b/s
Count of elements : 1375
Stream size : 38.0 KiB (0%)
Title : English subs for English audio
Language : English
Default : No
Forced : No

Text #6
ID : 10
Format : UTF-8
Codec ID : S_TEXT/UTF8
Codec ID/Info : UTF-8 Plain Text
Duration : 1 h 47 min
Bit rate : 62 b/s
Count of elements : 1912
Stream size : 49.3 KiB (0%)
Title : English SDH for English audio
Language : English
Default : No
Forced : No

Text #7
ID : 11
Format : PGS
Muxing mode : zlib
Codec ID : S_HDMV/PGS
Codec ID/Info : Picture based subtitle format used on BDs/HD-DVDs
Duration : 1 h 47 min
Bit rate : 47.2 kb/s
Count of elements : 2940
Stream size : 36.4 MiB (0%)
Title : English SDH for English audio
Language : English
Default : No
Forced : No

Text #8
ID : 12
Format : PGS
Muxing mode : zlib
Codec ID : S_HDMV/PGS
Codec ID/Info : Picture based subtitle format used on BDs/HD-DVDs
Duration : 1 h 47 min
Bit rate : 25.9 kb/s
Count of elements : 2416
Stream size : 20.0 MiB (0%)
Language : Chinese
Default : No
Forced : No

Menu
00:00:00.000 : en:Chapter 01
00:05:56.458 : en:Chapter 02
00:15:39.958 : en:Chapter 03
00:25:46.125 : en:Chapter 04
00:35:42.875 : en:Chapter 05
00:41:50.208 : en:Chapter 06
00:52:11.833 : en:Chapter 07
01:00:58.917 : en:Chapter 08
01:08:17.250 : en:Chapter 09
01:16:35.167 : en:Chapter 10
01:24:05.667 : en:Chapter 11
01:43:22.500 : en:Chapter 12





1 个附件 售价 大小 下载 时间

Ne.Zha.2019.CHINESE.2160p.UHD.BluRay.X265.10bit.HDR.DTS-HD.MA.5.1-WhiteRhino.torrent 0 金币 57.55K 2100 次 1月前

#1楼
发帖时间:2020-04-02 02:39:50   |   回复数:3
liyouchai
隐世仙人♂
谢谢楼主分享资源
1月前 #2楼
911degrees
隐世仙人♂
非常感谢,谢谢分享
1月前 #3楼
jokingcheung
一代宗师
谢谢分享
1月前 #4楼
游客组