coor
一代宗师

[2019] [其他] [剧情] [WEB-1080P] 看不见的女人 Invisible.Life.2019.PORTUGUESE.ENSUBBED.1080p.AMZN.WEBRip.DDP5.1.x264-TEP

-->

帖子完整标题:看不见的女人 Invisible.Life.2019.PORTUGUESE.ENSUBBED.1080p.AMZN.WEBRip.DDP5.1.x264-TEPES[rartv] 10.04GB




◎译  名 看不见的女人 / Invisible Life / The Invisible Life of Euridice Gusm?o / Vida Invisivel / 失散两生花(港) / 她们的隐藏人生(台) / 爱在姊妹失散时(澳) / 隐形的女人
◎片  名 A vida invisível de Eurídice Gusm?o
◎年  代 2019
◎产  地 巴西
◎类  别 剧情
◎语  言 葡萄牙语
◎上映日期 2019-05-20(戛纳电影节)
◎IMDb评分 8.1/10 from 2827 users
◎IMDb链接 https://www.imdb.com/title/tt6390668
◎豆瓣评分 7.9/10 from 1079 users
◎豆瓣链接 https://movie.douban.com/subject/30301264/
◎片  长 145分钟
◎导  演 卡里姆·埃诺兹 Karim Ainouz
◎编  剧 卡里姆·埃诺兹 Karim Ainouz / Murilo Hauser / Inés Bortagaray / Martha Batalha
◎主  演 朱莉娅·斯托克勒 Julia Stockler
      卡罗尔·杜阿尔特 Carol Duarte
      弗拉维亚·古兹曼 Flávia Gusm?o
      费尔兰德·蒙特纳哥 Fernanda Montenegro
      马丽亚·曼诺埃拉 Maria Manoella
      马西奥·维托 Marcio Vito
      尼古拉斯·安东尼 Nikolas Antunes
      克里斯蒂娜·佩雷拉 Cristina Pereira
      弗拉维奥·保乌拉奇 Flavio Bauraqui


◎标  签 巴西 | 女性 | 2019 | 巴西电影 | 剧情 | 戛纳电影节 | 戛纳 | 2019Cannes

◎简  介

  故事发生在1950年巴西的里约热内卢,18岁的尤丽狄茜与20岁的吉达是一对形影不离的亲生姐妹,她们与保守的父母一同生活。虽然家风传统,姐妹俩却各自怀揣梦想:尤丽狄茜想做一名职业钢琴家,吉达渴望追寻真爱。在一次戏剧化的变故后,姐妹被迫分离,两人各自的梦想也因生活的无奈被搁置。即便如此,姐妹倆从未放弃找寻彼此的希望。

◎获奖情况

  第72届戛纳电影节(2019)
  一种关注单元 一种关注大奖 卡里姆·埃诺兹

  第91届美国国家评论协会奖(2019)
  五佳外语片

  第35届美国独立精神奖(2020)
  最佳国际电影(提名)
Video
ID : 1
Format : AVC
Format/Info : Advanced Video Codec
Format profile : [email protected]
Format settings : CABAC / 4 Ref Frames
Format settings, CABAC : Yes
Format settings, Reference frames : 4 frames
Codec ID : V_MPEG4/ISO/AVC
Duration : 2 h 19 min
Bit rate mode : Constant
Bit rate : 10 000 kb/s
Width : 1 920 pixels
Height : 800 pixels
Display aspect ratio : 2.40:1
Frame rate mode : Constant
Frame rate : 23.976 (24000/1001/189150) FPS
Color space : YUV
Chroma subsampling : 4:2:0
Bit depth : 8 bits
Scan type : Progressive
Bits/(Pixel*Frame) : 0.272
Stream size : 9.42 GiB (94%)
Default : Yes
Forced : No
Color range : Limited
Color primaries : BT.709
Transfer characteristics : BT.709
Matrix coefficients : BT.709

Audio
ID : 2
Format : E-AC-3
Format/Info : Enhanced AC-3
Commercial name : Dolby Digital Plus
Codec ID : A_EAC3
Duration : 2 h 19 min
Bit rate mode : Constant
Bit rate : 640 kb/s
Channel(s) : 6 channels
Channel layout : L R C LFE Ls Rs
Sampling rate : 48.0 kHz
Frame rate : 31.250 FPS (1536 SPF)
Compression mode : Lossy
Stream size : 640 MiB (6%)
Language : Portuguese
Service kind : Complete Main
Default : Yes
Forced : No

Text #1
ID : 3
Format : UTF-8
Codec ID : S_TEXT/UTF8
Codec ID/Info : UTF-8 Plain Text
Duration : 2 h 3 min
Bit rate : 0 b/s
Count of elements : 19
Stream size : 96.0 Bytes (0%)
Language : English
Default : No
Forced : No

Text #2
ID : 4
Format : UTF-8
Codec ID : S_TEXT/UTF8
Codec ID/Info : UTF-8 Plain Text
Duration : 2 h 18 min
Bit rate : 5 b/s
Count of elements : 388
Stream size : 5.54 KiB (0%)
Title : SDH
Language : English
Default : No
Forced : No

Menu
00:00:00.000 : en:Amazon Logo
00:00:22.000 : en:Studio Logo
00:00:59.000 : en:Opening Credits
00:02:14.000 : en:Eurídice and Guida are at beach
00:04:57.000 : en:Title Sequence
00:05:35.000 : en:Eurídice plays the piano
00:07:24.000 : en:Guida talks about Iorgos
00:09:55.000 : en:Mr. Feliciano visits
00:11:28.000 : en:Guida dresses up
00:13:56.000 : en:Guidagets out her house
00:14:55.000 : en:Guida dances with Iorgos
00:16:58.000 : en:Eurídice waits for Guida
00:18:44.000 : en:A letter from Guida
00:20:54.000 : en:Eurídice talks to Zélia
00:23:53.000 : en:Eurídice enjoys her wedding
00:25:14.000 : en:Eurídice is with Antenor
00:30:47.000 : en:New life of Eurídice
00:32:22.000 : en:Guida comes home
00:38:20.000 : en:Manoel kicks out Guida
00:39:40.000 : en:Antenor disturbs Eurídice
00:43:13.000 : en:Guida gives a baby birth
00:46:23.000 : en:Guida\'s work
00:53:09.000 : en:Guida feeds a baby
00:55:38.000 : en:Eurídice sees a doctor
00:58:25.000 : en:Eurídice goes to Zélia
01:01:37.000 : en:Antenor comes back to home
01:06:06.000 : en:They miss each other
01:10:39.000 : en:Guida wants to go to Vienna
01:14:35.000 : en:Eurídice asks her mother
01:17:17.000 : en:Eurídice looks for Guida
01:22:27.000 : en:Chico meets Cecília
01:26:45.000 : en:Guida have Christmas dinner with Filo
01:28:22.000 : en:Eurídice\'s Christmas dinner
01:32:45.000 : en:Filomena is sick
01:36:54.000 : en:Guida needs a help
01:41:21.000 : en:Filomena is in a couch
01:43:49.000 : en:Piano audition
01:47:30.000 : en:Eurídice wants to play the piano
01:52:09.000 : en:Manoel tells a truth
01:55:59.000 : en:Eurídice\'s behavior at night
02:00:26.000 : en:Eurídice is at hospital
02:02:23.000 : en:A funeral
02:05:34.000 : en:Eurídice\'s family
02:09:17.000 : en:Eurídice finds letters from Guida
02:11:36.000 : en:Gisele talks about her grandma
02:14:47.000 : en:End Credits





1 个附件 售价 大小 下载 时间

Invisible.Life.2019.PORTUGUESE.ENSUBBED.1080p.AMZN.WEBRip.DDP5.1.x264-TEPES%255Brartv%255D.torrent 0 金币 50.76K 763 次 1月前

#1楼
发帖时间:2020-04-03 18:57:07   |   回复数:1
911degrees
隐世仙人♂
非常感谢,谢谢分享
1月前 #2楼
游客组