coor
一代宗师

[2019] [其他] [喜剧] [WEB-1080P] 詹姆斯大战未来的自己 James.Vs.His.Future.Self.2019.1080p.WEB-DL.DD5.1.H264-FGT 3.20GB

-->

帖子完整标题:詹姆斯大战未来的自己 James.Vs.His.Future.Self.2019.1080p.WEB-DL.DD5.1.H264-FGT 3.20GB




◎译  名 詹姆斯大战未来的自己
◎片  名 James vs. His Future Self
◎年  代 2019
◎产  地 加拿大
◎类  别 喜剧
◎语  言 英语
◎IMDb评分 6.8/10 from 42 users
◎IMDb链接 https://www.imdb.com/title/tt6739796
◎豆瓣评分 0/10 from 0 users
◎豆瓣链接 https://movie.douban.com/subject/30306100/
◎导  演 杰里米·拉隆德 Jeremy LaLonde
◎编  剧 乔纳斯·切尔尼克 Jonas Chernick / 杰里米·拉隆德 Jeremy LaLonde
◎主  演 乔纳斯·切尔尼克 Jonas Chernick
      丹尼尔·斯特恩 Daniel Stern
      克利欧佩特拉·科尔曼 Cleopatra Coleman


◎简  介

  When an uptight time-travelling obsessed young scientist is visited by his nihilistic future self, he's told that he needs to give up his dream of becoming the world's first time traveler, or else. But when he won't go along with the plan, it becomes a wicked battle of man versus himself - literally.
Video
ID : 1
Format : AVC
Format/Info : Advanced Video Codec
Format profile : [email protected]
Format settings : CABAC / 5 Ref Frames
Format settings, CABAC : Yes
Format settings, Reference frames : 5 frames
Codec ID : V_MPEG4/ISO/AVC
Duration : 1 h 34 min
Bit rate : 4 462 kb/s
Width : 1 920 pixels
Height : 802 pixels
Display aspect ratio : 2.40:1
Frame rate mode : Constant
Frame rate : 23.976 (23976/1000/189150) FPS
Color space : YUV
Chroma subsampling : 4:2:0
Bit depth : 8 bits
Scan type : Progressive
Bits/(Pixel*Frame) : 0.121
Stream size : 2.95 GiB (92%)
Title : James.Vs.His.Future.Self.2019.1080p.WEB-DL.DD5.1.H264-FGT
Language : English
Default : Yes
Forced : No
Color range : Limited
Color primaries : BT.709
Transfer characteristics : BT.709
Matrix coefficients : BT.709

Audio
ID : 2
Format : AC-3
Format/Info : Audio Coding 3
Commercial name : Dolby Digital
Codec ID : A_AC3
Duration : 1 h 34 min
Bit rate mode : Constant
Bit rate : 384 kb/s
Channel(s) : 6 channels
Channel layout : L R C LFE Ls Rs
Sampling rate : 48.0 kHz
Frame rate : 31.250 FPS (1536 SPF)
Bit depth : 16 bits
Compression mode : Lossy
Stream size : 260 MiB (8%)
Title : James.Vs.His.Future.Self.2019.1080p.WEB-DL.DD5.1.H264-FGT
Language : English
Service kind : Complete Main
Default : Yes
Forced : No

Text
ID : 3
Format : UTF-8
Codec ID : S_TEXT/UTF8
Codec ID/Info : UTF-8 Plain Text
Duration : 1 h 28 min
Bit rate : 71 b/s
Count of elements : 1707
Stream size : 46.8 KiB (0%)
Language : English
Default : Yes
Forced : No

Menu
00:00:00.000 : en:Chapter 1
00:08:45.275 : en:Chapter 2
00:18:32.028 : en:Chapter 3
00:27:54.590 : en:Chapter 4
00:39:26.531 : en:Chapter 5
00:51:47.313 : en:Chapter 6
00:59:04.792 : en:Chapter 7
01:07:11.570 : en:Chapter 8
01:16:26.875 : en:Chapter 9
01:21:54.619 : en:Chapter 10
01:31:10.007 : en:Chapter 11





1 个附件 售价 大小 下载 时间

James.Vs.His.Future.Self.2019.1080p.WEB-DL.DD5.1.H264-FGT.torrent 0 金币 32.58K 266 次 1月前

#1楼
发帖时间:2020-04-03 20:08:53   |   回复数:1
911degrees
隐世仙人♂
非常感谢,谢谢分享
1月前 #2楼
游客组