coor
一代宗师

[2019] [欧美] [喜剧] [WEB-1080P] 喋血江湖三人行/三叶草 Clover.2020.1080p.WEB-DL.DD5.1.H264-FGT 3.49GB

-->

帖子完整标题:喋血江湖三人行/三叶草 Clover.2020.1080p.WEB-DL.DD5.1.H264-FGT 3.49GB




◎译  名 喋血江湖三人行 / 三叶草
◎片  名 Clover
◎年  代 2019
◎产  地 美国
◎类  别 喜剧 / 惊悚 / 犯罪
◎语  言 英语
◎IMDb评分 4.0/10 from 5 users
◎IMDb链接 https://www.imdb.com/title/tt7801350
◎豆瓣评分 0/10 from 0 users
◎豆瓣链接 https://movie.douban.com/subject/33392301/
◎片  长 101分钟
◎导  演 Jon Abrahams

◎标  签 Jon_Abrahams | %%%

◎简  介

  两兄弟在错误的时间欠了错误的人钱。当他们逃跑时,试图把钱凑齐,却被一个十几岁的女孩压得喘不过气来,还被不知道的刺客追捕。
Video
ID : 1
Format : AVC
Format/Info : Advanced Video Codec
Format profile : [email protected]
Format settings : CABAC / 5 Ref Frames
Format settings, CABAC : Yes
Format settings, Reference frames : 5 frames
Codec ID : V_MPEG4/ISO/AVC
Duration : 1 h 41 min
Bit rate : 4 546 kb/s
Width : 1 920 pixels
Height : 796 pixels
Display aspect ratio : 2.40:1
Frame rate mode : Constant
Frame rate : 23.976 (23976/1000/189150) FPS
Color space : YUV
Chroma subsampling : 4:2:0
Bit depth : 8 bits
Scan type : Progressive
Bits/(Pixel*Frame) : 0.124
Stream size : 3.21 GiB (92%)
Title : Clover.2020.1080p.WEB-DL.DD5.1.H264-FGT
Language : English
Default : Yes
Forced : No
Color range : Limited
Color primaries : BT.709
Transfer characteristics : BT.709
Matrix coefficients : BT.709

Audio
ID : 2
Format : AC-3
Format/Info : Audio Coding 3
Commercial name : Dolby Digital
Codec ID : A_AC3
Duration : 1 h 41 min
Bit rate mode : Constant
Bit rate : 384 kb/s
Channel(s) : 6 channels
Channel layout : L R C LFE Ls Rs
Sampling rate : 48.0 kHz
Frame rate : 31.250 FPS (1536 SPF)
Bit depth : 16 bits
Compression mode : Lossy
Stream size : 278 MiB (8%)
Title : Clover.2020.1080p.WEB-DL.DD5.1.H264-FGT
Language : English
Service kind : Complete Main
Default : Yes
Forced : No

Text
ID : 3
Format : UTF-8
Codec ID : S_TEXT/UTF8
Codec ID/Info : UTF-8 Plain Text
Duration : 1 h 36 min
Bit rate : 77 b/s
Count of elements : 2238
Stream size : 54.5 KiB (0%)
Language : English
Default : Yes
Forced : No

Menu
00:00:00.000 : en:1
00:16:57.510 : en:2
00:28:21.110 : en:3
00:43:01.080 : en:4
00:54:31.600 : en:5
01:05:51.200 : en:6
01:18:06.560 : en:7
01:37:14.250 : en:8





1 个附件 售价 大小 下载 时间

Clover.2020.1080p.WEB-DL.DD5.1.H264-FGT.torrent 0 金币 35.38K 315 次 1月前

#1楼
发帖时间:2020-04-03 20:12:48   |   回复数:1
911degrees
隐世仙人♂
非常感谢,谢谢分享
1月前 #2楼
游客组