coor
一代宗师

[2019] [欧美] [其他] [BD-4K] 准备开战 Ready.for.War.2019.2160p.WEB.H265-PETRiFiED 9.28GB

-->

帖子完整标题:准备开战 Ready.for.War.2019.2160p.WEB.H265-PETRiFiED 9.28GB




◎译  名 准备开战
◎片  名 Ready for War
◎年  代 2019
◎产  地 美国
◎类  别 纪录片 / 战争 / 犯罪
◎语  言 英语
◎上映日期 2019-09-08(多伦多电影节)
◎IMDb评分 5.7/10 from 85 users
◎IMDb链接 https://www.imdb.com/title/tt10172550
◎豆瓣评分 0/10 from 0 users
◎豆瓣链接 https://movie.douban.com/subject/34835951/
◎片  长 90分钟
◎导  演 Andrew Renzi
◎编  剧 Andrew Renzi

◎简  介

  Thousands of immigrants in the United States enlist in the military, expecting an expedited path to citizenship. But the reality is more complicated. After fulfilling their service, thousands are estimated to have been deported. (The enforcement agency known as ICE won't divulge the exact number.) Something even more sinister awaits on the other side of the border, where drug cartels convert the US-trained soldiers into mercenaries. Ready for War profiles three veterans living different stages of this lethal cycle. Miguel Perez grew up in Chicago and did two tours of duty in Afghanistan, where he suffered a traumatic brain injury. Back in the US, he was arrested for a non-violent drug charge and deported away from his parents and children in Chicago to Mexico, where he has no support. Hector Barajas suffered a similar fate. The former US Army 82nd Airborne Specialist was deported in 2004 and dedicates himself to running the Deported Veterans Support House in Tijuana. Lastly, there is ...
Video
ID : 1
Format : HEVC
Format/Info : High Efficiency Video Coding
Format profile : [email protected]@High
Codec ID : V_MPEGH/ISO/HEVC
Duration : 1 h 29 min
Bit rate : 14.1 Mb/s
Width : 3 840 pixels
Height : 2 160 pixels
Display aspect ratio : 16:9
Frame rate mode : Constant
Frame rate : 23.976 (24000/1001/189150) FPS
Color space : YUV
Chroma subsampling : 4:2:0
Bit depth : 8 bits
Bits/(Pixel*Frame) : 0.071
Stream size : 8.81 GiB (95%)
Language : English
Default : Yes
Forced : No
Color range : Limited
Matrix coefficients : BT.2020 non-constant
Statistics Tags Issue : no_variable_data 1970-01-01 00:00:00 / no_variable_data 2010-02-22 21:41:29
FromStats_BitRate : 14352979
FromStats_Duration : 01:29:44.552000000
FromStats_FrameCount : 129100
FromStats_StreamSize : 9660545432

Audio
ID : 2
Format : E-AC-3
Format/Info : Enhanced AC-3
Commercial name : Dolby Digital Plus
Codec ID : A_EAC3
Duration : 1 h 29 min
Bit rate mode : Constant
Bit rate : 448 kb/s
Channel(s) : 6 channels
Channel layout : L R C LFE Ls Rs
Sampling rate : 48.0 kHz
Frame rate : 31.250 FPS (1536 SPF)
Compression mode : Lossy
Stream size : 288 MiB (3%)
Language : English
Service kind : Complete Main
Default : Yes
Forced : No
Statistics Tags Issue : no_variable_data 1970-01-01 00:00:00 / no_variable_data 2010-02-22 21:41:29
FromStats_BitRate : 448000
FromStats_Duration : 01:29:44.576000000
FromStats_FrameCount : 168268
FromStats_StreamSize : 301536256

Text
ID : 3
Format : UTF-8
Codec ID : S_TEXT/UTF8
Codec ID/Info : UTF-8 Plain Text
Title : English (SDH)
Language : English
Default : No
Forced : No
Statistics Tags Issue : no_variable_data 1970-01-01 00:00:00 / no_variable_data 2010-02-22 21:41:29
FromStats_BitRate : 72
FromStats_Duration : 01:26:03.780000000
FromStats_FrameCount : 1258
FromStats_StreamSize : 46920





1 个附件 售价 大小 下载 时间

Ready.for.War.2019.2160p.WEB.H265-PETRiFiED.torrent 0 金币 47.09K 1064 次 1月前

#1楼
发帖时间:2020-04-03 21:19:11   |   回复数:1
911degrees
隐世仙人♂
非常感谢,谢谢分享
1月前 #2楼
游客组