coor
一代宗师

[2008] [欧美] [剧情] [BD-1080P] 聪明人/爱情智囊团 Smart.People.2008.1080p.BluRay.x264.DD5.1-FGT 7.95GB

-->



◎译  名 聪明人 / 爱情智囊团 / 畸才家族
◎片  名 Smart People
◎年  代 2008
◎产  地 美国
◎类  别 剧情 / 喜剧 / 爱情 / 家庭
◎语  言 英语 / 西班牙语
◎上映日期 2008-04-11
◎IMDb评分 6.1/10 from 22205 users
◎IMDb链接 https://www.imdb.com/title/tt0858479
◎豆瓣评分 6.8/10 from 4023 users
◎豆瓣链接 https://movie.douban.com/subject/1944903/
◎片  长 95 分钟
◎导  演 Noam Murro
◎编  剧 Mark Poirier
◎主  演 Dennis Quaid
      Sarah Jessica Parker
      Thomas Haden Church
      Ellen Page
      Ashton Holmes
      Christine Lahti


◎标  签 EllenPage | 美国 | 美国电影 | 剧情 | 文艺 | 2008 | SarahJessicaParker | 我看过的电影

◎简  介

  劳伦斯(丹尼斯·奎德 Dennis Quaid 饰)是一名要求严苛的中年教授,虽然心地善良,但他拒人千里的气质使得学生对其厌烦,儿子和女儿也日渐对其冷淡。自从妻子去世后,独自抚养两个孩子的他就变得更加烦躁和无奈。一天,劳伦斯意外从栅栏上摔下来,被送进了医院,并得知负责他康复的女医生珍妮特(莎拉·杰茜卡·帕克 Sarah Jessica Parker 饰)原来是他曾经教过的学生,不过他已经记不清楚了。在频频约会后,劳伦斯发现自己似乎爱上了珍妮特,然而却深知自己仍在妻子逝世的阴影之下徘徊。面对眼前他不舍放弃的女子,似乎是爱情让这个老男人又开始尝试改变,尝试敞开心扉,尝试一个新的自己……
Video
ID : 1
Format : AVC
Format/Info : Advanced Video Codec
Format profile : [email protected]
Format settings, CABAC : Yes
Format settings, ReFrames : 5 frames
Codec ID : V_MPEG4/ISO/AVC
Duration : 1h 34mn
Bit rate : 11.4 Mbps
Width : 1 920 pixels
Height : 800 pixels
Display aspect ratio : 2.40:1
Frame rate mode : Constant
Frame rate : 23.976 fps
Color space : YUV
Chroma subsampling : 4:2:0
Bit depth : 8 bits
Scan type : Progressive
Bits/(Pixel*Frame) : 0.308
Stream size : 7.36 GiB (93%)
Writing library : x264 core 60 r928 4816918
Encoding settings : cabac=1 / ref=5 / deblock=1:0:0 / analyse=0x3:0x113 / me=umh / subme=7 / brdo=1 / mixed_ref=1 / me_range=16 / chroma_me=1 / trellis=1 / 8x8dct=1 / cqm=0 / deadzone=21,11 / chroma_qp_offset=0 / threads=6 / nr=0 / decimate=1 / mbaff=0 / bframes=3 / b_pyramid=1 / b_adapt=1 / b_bias=0 / direct=1 / wpredb=1 / bime=1 / keyint=250 / keyint_min=25 / scenecut=40(pre) / rc=2pass / bitrate=11351 / ratetol=1.0 / rceq=\'blurCplx^(1-qComp)\' / qcomp=1.00 / qpmin=10 / qpmax=51 / qpstep=4 / cplxblur=20.0 / qblur=0.5 / ip_ratio=1.40 / pb_ratio=1.30 / aq=2:1.00
Language : English
Default : Yes
Forced : No

Audio
ID : 2
Format : AC-3
Format/Info : Audio Coding 3
Mode extension : CM (complete main)
Format settings, Endianness : Big
Codec ID : A_AC3
Duration : 1h 34mn
Bit rate mode : Constant
Bit rate : 640 Kbps
Channel(s) : 6 channels
Channel positions : Front: L C R, Side: L R, LFE
Sampling rate : 48.0 KHz
Compression mode : Lossy
Stream size : 434 MiB (5%)
Language : English
Default : Yes
Forced : No

Text
ID : 3
Format : UTF-8
Codec ID : S_TEXT/UTF8
Codec ID/Info : UTF-8 Plain Text
Language : English
Default : Yes
Forced : No





1 个附件 售价 大小 下载 时间

Smart.People.2008.1080p.BluRay.x264.DD5.1-FGT.torrent 0 金币 80.04K 301 次 9天前

#1楼
发帖时间:2020-06-30 22:55:48   |   回复数:1
911degrees
隐世仙人♂
非常感谢,谢谢分享
9天前 #2楼
游客组