coor
一代宗师

[更 早] [其他] [剧情] [BD-1080P] 重装捍将 Silent.Trigger.1996.1080p.BluRay.x264.DTS-FGT 11.90GB

-->



◎译  名 重装捍将 / Silent Trigger
◎片  名 Silent Trigger
◎年  代 1996
◎产  地 加拿大 / 英国
◎类  别 剧情 / 动作 / 惊悚
◎语  言 英语
◎上映日期 1996-07-04
◎IMDb评分 5.5/10 from 3554 users
◎IMDb链接 https://www.imdb.com/title/tt0117653
◎豆瓣评分 6.2/10 from 399 users
◎豆瓣链接 https://movie.douban.com/subject/1299028/
◎片  长 Germany: 88 分钟
◎导  演 拉塞尔·穆卡希 Russell Mulcahy
◎编  剧 Sergio Altieri
◎主  演 杜夫·龙格尔 Dolph Lundgren
      吉娜·贝尔曼 Gina Bellman
      Conrad Dunn
      克里斯托弗·赫耶达尔 Christopher Heyerdahl
      Emma Stevens
      Alexandria Haber
      Reynald Robinson
      Dale Hayes
      艾琳·西姆斯 Erin Simms
      Jonathan Robert Rondeau
      Carl Alacchi
      Jonathan Larocque
      安德里亚斯·艾波吉斯 Andreas Apergis
      Tim Post
      Jason Cavalier


◎标  签 动作 | 狙击 | 美国电影 | 动作片 | 加拿大 | 美国 | 暴力 | 1996

◎简  介

  韦克斯曼(杜夫·龙格尔 Dolph Lundgren 饰)曾是一名效力于秘密地下组织的特工,在战争时代凭借着惊人的准星立下了赫赫战功。战争结束之后,韦克斯曼依然无法从杀戮的宿命中解脱出来,转型成为了潜伏在黑暗之中的杀手,实际上,对充满了血腥和危险的生活,韦克斯曼早已经非常厌倦,他内心里的倦意被上司发现,为了保守住组织的机密,上司决定牺牲韦克斯曼这枚棋子。
  韦克斯曼和同僚克雷格(吉娜·贝尔曼 Gina Bellman 饰)一起接受了一个任务,实际上,上司另外派出了一名杀手,打算在暗中干掉韦克斯曼。多年来培养出的职业素养让韦克斯曼敏感的发现了情况的异常,他决定不向命运低头,和克雷格一起寻求生的希望。
Video
ID : 1
Format : AVC
Format/Info : Advanced Video Codec
Format profile : [email protected]
Format settings, CABAC : Yes
Format settings, ReFrames : 5 frames
Codec ID : V_MPEG4/ISO/AVC
Duration : 1h 33mn
Bit rate : 17.0 Mbps
Width : 1 920 pixels
Height : 816 pixels
Display aspect ratio : 2.35:1
Frame rate mode : Constant
Frame rate : 23.976 fps
Color space : YUV
Chroma subsampling : 4:2:0
Bit depth : 8 bits
Scan type : Progressive
Bits/(Pixel*Frame) : 0.453
Stream size : 11.2 GiB (94%)
Writing library : x264 core 142 r2431+42 c69a006 tMod [[email protected]:2:0 X86_64]
Encoding settings : cabac=1 / ref=5 / deblock=1:-3:-3 / analyse=0x3:0x133 / me=umh / subme=10 / psy=1 / fade_compensate=0.00 / psy_rd=1.00:0.00 / mixed_ref=1 / me_range=24 / chroma_me=1 / trellis=2 / 8x8dct=1 / cqm=0 / deadzone=21,11 / fast_pskip=1 / chroma_qp_offset=-2 / threads=12 / lookahead_threads=2 / sliced_threads=0 / nr=0 / decimate=1 / interlaced=0 / bluray_compat=0 / constrained_intra=0 / fgo=0 / bframes=8 / b_pyramid=2 / b_adapt=2 / b_bias=0 / direct=3 / weightb=1 / open_gop=0 / weightp=2 / keyint=250 / keyint_min=23 / scenecut=40 / intra_refresh=0 / rc_lookahead=60 / rc=crf / mbtree=0 / crf=19.7000 / qcomp=0.65 / qpmin=0:0:0 / qpmax=69:69:69 / qpstep=4 / vbv_maxrate=62500 / vbv_bufsize=78125 / crf_max=0.0 / nal_hrd=none / filler=0 / ip_ratio=1.30 / pb_ratio=1.20 / aq=4:0.85 / aq-sensitivity=10.00 / aq-factor=1.00:1.00:1.00 / aq2=0 / aq3=0
Language : English
Default : Yes
Forced : No
Color range : Limited
Matrix coefficients : BT.709

Audio
ID : 2
Format : DTS
Format/Info : Digital Theater Systems
Mode : 16
Format settings, Endianness : Big
Codec ID : A_DTS
Duration : 1h 33mn
Bit rate mode : Constant
Bit rate : 768 Kbps
Channel(s) : 6 channels
Channel positions : Front: L C R, Side: L R, LFE
Sampling rate : 48.0 KHz
Bit depth : 16 bits
Compression mode : Lossy
Stream size : 516 MiB (4%)
Language : English
Default : Yes
Forced : No

Text
ID : 3
Format : UTF-8
Codec ID : S_TEXT/UTF8
Codec ID/Info : UTF-8 Plain Text
Language : English
Default : No
Forced : No

Menu
00:00:00.000 : :00:00:00.000
00:10:55.446 : :00:10:55.446
00:27:06.124 : :00:27:06.124
00:38:09.496 : :00:38:09.496
00:50:39.286 : :00:50:39.286
01:01:01.825 : :01:01:01.825
01:13:00.167 : :01:13:00.167
01:30:20.624 : :01:30:20.624
01:33:42.700 : :01:33:42.700





1 个附件 售价 大小 下载 时间

Silent.Trigger.1996.1080p.BluRay.x264.DTS-FGT.torrent 0 金币 60.10K 525 次 9天前

#1楼
发帖时间:2020-06-30 23:22:38   |   回复数:3
yangbo83222179
一代宗师
谢谢楼主分享
9天前 #2楼
911degrees
隐世仙人♂
非常感谢,谢谢分享
9天前 #3楼
liyouchai
隐世仙人♂
谢谢楼主分享资源
8天前 #4楼
游客组