coor
一代宗师

[更 早] [欧美] [其他] [WEB-1080P] 科威特之火 Fires.Of.Kuwait.1992.1080p.HULU.WEBRip.DDP5.1.x265-AJP69 0.98GB

-->

帖子完整标题:科威特之火 Fires.Of.Kuwait.1992.1080p.HULU.WEBRip.DDP5.1.x265-AJP69 0.98GB



◎译  名 科威特之火
◎片  名 Fires of Kuwait
◎年  代 1992
◎产  地 美国
◎类  别 纪录片 / 短片
◎语  言 英语
◎IMDb评分 7.2/10 from 371 users
◎IMDb链接 https://www.imdb.com/title/tt0104275
◎豆瓣评分 0/10 from 0 users
◎豆瓣链接 https://movie.douban.com/subject/1440118/
◎片  长 39分钟
◎导  演 David Douglas
◎编  剧 David Douglas
◎主  演 萨达姆·侯赛因 Saddam Hussein
      乔治·布什 George Bush


◎标  签 纪录片 | 美国 | 科威特之火 | 紀錄片 | IMAX | 1992

◎简  介

  After Saddam Hussein had the Kuwait Oil wells lit up, teams from all over the world fought those fires for months. They had to save the oil resources, as well as reduce air pollution. The different teams developed different techniques of extinguishing the fires. From TNT-shockwaves blowing out the flames to Tank-mounted twin MIG-jet-engines (from Hungary) blasting away the flames (and nearly lifting the tank into the air), man's emergency creativity can be seen at it's best

◎获奖情况

  第65届奥斯卡金像奖(1993)
  最佳纪录长片(提名) Sally Dundas

Video
ID : 1
Format : HEVC
Format/Info : High Efficiency Video Coding
Format profile : Main [email protected]@Main
Codec ID : V_MPEGH/ISO/HEVC
Duration : 36 min 4 s
Bit rate : 3 639 kb/s
Width : 1 920 pixels
Height : 1 080 pixels
Display aspect ratio : 16:9
Frame rate mode : Constant
Frame rate : 23.976 (24000/1001/189150) FPS
Color space : YUV
Chroma subsampling : 4:2:0
Bit depth : 10 bits
Bits/(Pixel*Frame) : 0.073
Stream size : 939 MiB (93%)
Default : Yes
Forced : No

Audio
ID : 2
Format : E-AC-3
Format/Info : Enhanced AC-3
Commercial name : Dolby Digital Plus
Codec ID : A_EAC3
Duration : 36 min 4 s
Bit rate mode : Constant
Bit rate : 256 kb/s
Channel(s) : 6 channels
Channel layout : L R C LFE Ls Rs
Sampling rate : 48.0 kHz
Frame rate : 31.250 FPS (1536 SPF)
Compression mode : Lossy
Stream size : 66.1 MiB (7%)
Language : English
Service kind : Complete Main
Default : Yes
Forced : No

Text
ID : 3
Format : UTF-8
Codec ID : S_TEXT/UTF8
Codec ID/Info : UTF-8 Plain Text
Duration : 33 min 48 s
Bit rate : 70 b/s
Count of elements : 352
Stream size : 17.4 KiB (0%)
Language : English
Default : No
Forced : No





1 个附件 售价 大小 下载 时间

Fires.Of.Kuwait.1992.1080p.HULU.WEBRip.DDP5.1.x265-AJP69.zip 0 金币 20.31K 210 次 2天前

#1楼
发帖时间:2020-08-01 23:43:34   |   回复数:1
911degrees
隐世仙人♂
非常感谢,谢谢分享
2天前 #2楼
游客组