travismk
一代宗师

[2009] [其他] [剧情] [BD-1080P] 安娜的迷宫/艾美尔 Amer.2009.FRENCH.1080p.BluRay.x264-HANDJOB 7.92GB

-->

帖子完整标题:安娜的迷宫/艾美尔 Amer.2009.FRENCH.1080p.BluRay.x264-HANDJOB 7.92GB



◎译  名 安娜的迷宫/艾美尔
◎片  名 Amer
◎年  代 2009
◎产  地 法国,比利时
◎类  别 剧情 / 恐怖
◎语  言 法语
◎上映日期 2010-03-03(法国)
◎IMDb评分 6.2/10 from 5625 users
◎IMDb链接 https://www.imdb.com/title/tt1426352/
◎豆瓣评分 6.3/10 from 546 users
◎豆瓣链接 https://movie.douban.com/subject/4086983/
◎片  长 90分钟
◎导  演 布鲁诺·福扎尼 Bruno Forzani
◎主  演 哈里·克莱文 Harry Cleven

◎标  签 法国 | 实验 | 惊悚 | 法国电影 | 恐怖 | 比利时 | 2009 | 2010

◎简  介

  影片聚焦在安娜的童年、青春以及成年时期的不同阶段,三个重要的人生时刻,都充满了欲望,同时也诠释了她的一生。

Video
ID : 1
Format : AVC
Format/Info : Advanced Video Codec
Format profile : [email protected]
Format settings : CABAC / 5 Ref Frames
Format settings, CABAC : Yes
Format settings, Reference frames : 5 frames
Codec ID : V_MPEG4/ISO/AVC
Duration : 1 h 30 min
Bit rate : 11.9 Mb/s
Width : 1 916 pixels
Height : 816 pixels
Display aspect ratio : 2.35:1
Frame rate mode : Constant
Frame rate : 23.976 (24000/1001/189150) FPS
Color space : YUV
Chroma subsampling : 4:2:0
Bit depth : 8 bits
Scan type : Progressive
Bits/(Pixel*Frame) : 0.317
Stream size : 7.52 GiB (95%)
Writing library : x264 core 157 r2935 545de2f
Encoding settings : cabac=1 / ref=5 / deblock=1:-3:-3 / analyse=0x3:0x133 / me=umh / subme=10 / psy=1 / psy_rd=1.00:0.00 / mixed_ref=1 / me_range=32 / chroma_me=1 / trellis=2 / 8x8dct=1 / cqm=0 / deadzone=21,11 / fast_pskip=0 / chroma_qp_offset=-2 / threads=12 / lookahead_threads=3 / sliced_threads=0 / nr=0 / decimate=0 / interlaced=0 / bluray_compat=0 / constrained_intra=0 / bframes=14 / b_pyramid=2 / b_adapt=2 / b_bias=0 / direct=3 / weightb=1 / open_gop=0 / weightp=2 / keyint=240 / keyint_min=24 / scenecut=40 / intra_refresh=0 / rc_lookahead=60 / rc=crf / mbtree=0 / crf=19.0 / qcomp=0.60 / qpmin=0 / qpmax=69 / qpstep=4 / vbv_maxrate=62500 / vbv_bufsize=78125 / crf_max=0.0 / nal_hrd=none / filler=0 / ip_ratio=1.40 / pb_ratio=1.30 / aq=2:1.00
Default : Yes
Forced : No
Color range : Limited
Color primaries : BT.709
Transfer characteristics : BT.709
Matrix coefficients : BT.709

Audio
ID : 2
Format : AC-3
Format/Info : Audio Coding 3
Commercial name : Dolby Digital
Codec ID : A_AC3
Duration : 1 h 30 min
Bit rate mode : Constant
Bit rate : 640 kb/s
Channel(s) : 6 channels
Channel layout : L R C LFE Ls Rs
Sampling rate : 48.0 kHz
Frame rate : 31.250 FPS (1536 SPF)
Compression mode : Lossy
Stream size : 414 MiB (5%)
Language : French
Service kind : Complete Main
Default : Yes
Forced : No

Text
ID : 3
Format : UTF-8
Codec ID : S_TEXT/UTF8
Codec ID/Info : UTF-8 Plain Text
Duration : 1 h 1 min
Bit rate : 2 b/s
Count of elements : 40
Stream size : 1 009 Bytes (0%)
Language : English
Default : Yes
Forced : No

Menu
00:00:00.000 : :Chapter 1
00:06:13.748 : :Chapter 2
00:10:28.169 : :Chapter 3
00:18:11.591 : :Chapter 4
00:27:29.398 : :Chapter 5
00:33:56.076 : :Chapter 6
00:40:58.623 : :Chapter 7
00:45:43.407 : :Chapter 8
00:54:01.071 : :Chapter 9
01:02:31.331 : :Chapter 10
01:06:26.191 : :Chapter 11
01:25:30.584 : :Chapter 12





1 个附件 售价 大小 下载 时间

Amer.2009.FRENCH.1080p.BluRay.x264-HANDJOB.zip 0 金币 40.25K 714 次 9天前

#1楼
发帖时间:2020-11-22 21:57:11   |   回复数:0
游客组