travismk
一代宗师

[更 早] [日本] [剧情] [WEB-1080P] 暴力街 Violent.Streets.1974.JAPANESE.1080p.AMZN.WEBRip.DDP2.0.x264-SbR 9.67GB

-->

帖子完整标题:暴力街 Violent.Streets.1974.JAPANESE.1080p.AMZN.WEBRip.DDP2.0.x264-SbR 9.67GB



◎译  名 Boryoku gai/quartier violent
◎片  名 暴力街
◎年  代 1974
◎产  地 日本
◎类  别 剧情 / 动作 / 犯罪
◎语  言 日语
◎上映日期 1974-04-13
◎IMDb评分 6.8/10 from 223 users
◎IMDb链接 https://www.imdb.com/title/tt0495074/
◎豆瓣评分 6.6/10 from 173 users
◎豆瓣链接 https://movie.douban.com/subject/2209096/
◎片  长 Japan: 96 分钟
◎导  演 五社英雄 Hideo Gosha
◎编  剧 五社英雄 Hideo Gosha
◎主  演 安藤昇 Noboru Ando
      小林旭 Akira Kobayashi
      室田日出男 Hideo Murota
      夏八木勋 Isao Natsuyagi
      川村真樹 Maki Kawamura
      丹波哲郎 Tetsur? Tanba
      小池朝雄 Asao Koike
      赤座美代子 Miyoko Akaza
      八名信夫 Nobuo Yana
      菅原文太 Bunta Sugawara
      田中浩 Hiroshi Tanaka
      安冈力也 Rikiya Yasuoka

◎标  签 五社英雄 | 日本 | 日本电影 | 黑帮 | 暴力 | 犯罪 | 1974 | 小林旭

◎简  介

  もと関東東菊会幹部江川組々長?江川紘一は、今では足を洗い銀座のクラブ?マドリッドを経営し、情婦の晃子と平穏な生活を送っていた。関西西日本連合会が全国制覇の最後の拠点、東京?銀座に乗り出して来た。銀座の中心マドリッドに目をつけた西日本連合会だが、東菊会の剛原も同幹部?矢崎竜二を指し向けて、マドリッド買収に乗り出した。しかし、江川はあくまでマドリッドを守る態度を示した。一方、東菊会たちの仕業に腹をすえかねた江川の配下の望月たちは、江川に内密で江川組再建を企てた。望月はチンピラ数人で、東菊会経営の新興企画の新人歌手?天野マリを誘拐し、それを西日本連合会の仕業にみせかけ一億円の恐喝を行なった。そして、数日後、天野マリが死体で発見され、マスコミはこの事件の背後に関東?関西の暴力団の抗争がからんでいると騒ぎたてた。望月は一億円を手に入れ、元江川組々員?浜勇喜に金を預けた。そして望月、浜は江川に組再建を打診するが、江川は拒否する。一方、天野マリ誘拐が望月たちの仕業だと知った東菊会は、殺し屋を雇い望月たち江川の配下を殺した。今まで沈黙を保っていた江川は、配下の無残な死に様を見て、遂に剛原に喧嘩状をたたきつけた。それを知った浜は、かつての江川組々員に連絡し、解体屋をしているギザゴロの辰を江川に紹介した。辰は解体屋をしながら、手製の銃を百挺余り作っていた。戦いの用意は整った。江川たちは、西日本連合会に対する作戦を練っている東菊会の幹部たち--諸木、二橋、山岡、東松、西田、そして矢崎の中に殴り込みをかけた。銃撃戦が繰り広げられ、江川と辰は山岡、東松、西田を殺し逃走するが、途中で辰は殺されてしまった。江川は、剛原の妻で、もと恋人の悠子に助けられ逃げのびる。一方、必死で江川を探す矢崎は、江川の情婦?晃子のアパートへ行き、江川をおびき出そうとした。江川は、罠にはまってしまったが一目散に逃げ、ある養鶏場に身を隠す。矢崎は、江川の逃げ場所を察知するが、単身で江川に対決を挑んだ。一方、剛原は江川の銃弾で倒れてしまったために、幹部の諸木が東菊会の会長に納まり、西日本連合会々長?島村と手を組んだ。そして、島村たちにとって邪魔な江川、矢崎の二人を殺す相談を秘かに進めていた……。

Video
ID : 1
Format : AVC
Format/Info : Advanced Video Codec
Format profile : [email protected]
Format settings : CABAC / 4 Ref Frames
Format settings, CABAC : Yes
Format settings, Reference frames : 4 frames
Codec ID : V_MPEG4/ISO/AVC
Duration : 1 h 35 min
Bit rate : 14.2 Mb/s
Width : 1 920 pixels
Height : 816 pixels
Display aspect ratio : 2.35:1
Frame rate mode : Constant
Frame rate : 23.976 (24000/1001/189150) FPS
Color space : YUV
Chroma subsampling : 4:2:0
Bit depth : 8 bits
Scan type : Progressive
Bits/(Pixel*Frame) : 0.378
Stream size : 9.52 GiB (98%)
Language : Japanese
Default : Yes
Forced : No
Color range : Limited
Color primaries : BT.709
Transfer characteristics : BT.709
Matrix coefficients : BT.709

Audio
ID : 2
Format : E-AC-3
Format/Info : Enhanced AC-3
Commercial name : Dolby Digital Plus
Codec ID : A_EAC3
Duration : 1 h 35 min
Bit rate mode : Constant
Bit rate : 224 kb/s
Channel(s) : 2 channels
Channel layout : L R
Sampling rate : 48.0 kHz
Frame rate : 31.250 FPS (1536 SPF)
Compression mode : Lossy
Stream size : 154 MiB (2%)
Title : Japanese
Language : Japanese
Service kind : Complete Main
Default : Yes
Forced : No

Text #1
ID : 3
Format : UTF-8
Codec ID : S_TEXT/UTF8
Codec ID/Info : UTF-8 Plain Text
Duration : 1 h 35 min
Bit rate : 29 b/s
Count of elements : 730
Stream size : 20.8 KiB (0%)
Language : English
Default : Yes
Forced : No

Text #2
ID : 4
Format : UTF-8
Codec ID : S_TEXT/UTF8
Codec ID/Info : UTF-8 Plain Text
Duration : 1 h 34 min
Bit rate : 52 b/s
Count of elements : 903
Stream size : 36.3 KiB (0%)
Language : Japanese
Default : No
Forced : No





1 个附件 售价 大小 下载 时间

Violent.Streets.1974.JAPANESE.1080p.AMZN.WEBRip.DDP2.0.x264-SbR.zip 0 金币 49.04K 350 次 8天前

#1楼
发帖时间:2021-01-13 22:34:08   |   回复数:0
游客组