travismk
一代宗师

[2014] [其他] [WEB-1080P] 巴罗洛男孩 Barolo.Boys.the.Story.of.a.Revolution.2014.1080p.AMZN.WEBRip.DDP2.0.x264-L

-->

帖子完整标题:巴罗洛男孩 Barolo.Boys.the.Story.of.a.Revolution.2014.1080p.AMZN.WEBRip.DDP2.0.x264-LPAIN 5.41GB



◎译  名 巴罗洛男孩
◎片  名 barolo boys
◎年  代 2014
◎产  地 意大利
◎类  别 
◎语  言 英语,意大利语
◎上映日期 
◎IMDb评分 6.9/10 from 43 users
◎IMDb链接 https://www.imdb.com/title/tt3792124/
◎豆瓣评分 /10 from 0 users
◎豆瓣链接 https://movie.douban.com/subject/26868747/
◎主  演 乔·巴斯提亚尼齐 Joe Bastianich

◎标  签 纪录片 | 意大利 | Barolo | Wine | 饮食

◎简  介

  “他用一把锯子把父亲不愿换掉的又旧又大的木桶全部毁掉,他的父亲乔治瓦尼实在不明白这个年轻小伙的极端想法,父亲把儿子赶出家门,即使在两年后离开人世前也无法释怀……”近日,一部有关意大利巴罗洛(Barolo)产区的纪录片正式发布,该纪录片描述了上世纪80年代在巴罗洛发生的酿酒风潮改革。
  
  当年被父亲赶出家门的“巴罗洛男孩”如今已不再年少,他在影片中亲身叙述了当年的“年少轻狂”。数十年时光飞逝,他已成为皮埃蒙特(Piedmont)地区酿酒界的改革先驱之一,他就是伊林·奥特(Elio Altare),以他的名字命名的酒庄,如今是意大利仅有的获得超过20个三个酒杯(《大红虾》(Gambero Rosso)“三杯奖”的最高级别)的三家酒庄之一。由导演保罗·卡萨里(Paolo Casalis)与迪斯安奴·佳雅(Tiziano Gaia)执导的纪录片《巴罗洛男孩》,正是讲述了80年代,一群年轻的疯狂的酿酒师是如何变革该区的酿酒风潮,目前,该纪录片可透过官方网站购买DVD版本或在线付费观看。

Video
ID : 1
Format : AVC
Format/Info : Advanced Video Codec
Format profile : [email protected]
Format settings : CABAC / 4 Ref Frames
Format settings, CABAC : Yes
Format settings, Reference frames : 4 frames
Codec ID : V_MPEG4/ISO/AVC
Duration : 1 h 3 min
Bit rate : 12.0 Mb/s
Width : 1 920 pixels
Height : 1 080 pixels
Display aspect ratio : 16:9
Frame rate mode : Constant
Frame rate : 25.000 FPS
Color space : YUV
Chroma subsampling : 4:2:0
Bit depth : 8 bits
Scan type : Progressive
Bits/(Pixel*Frame) : 0.231
Stream size : 5.31 GiB (98%)
Language : English
Default : Yes
Forced : No
Color range : Limited
Color primaries : BT.709
Transfer characteristics : BT.709
Matrix coefficients : BT.709

Audio
ID : 2
Format : E-AC-3
Format/Info : Enhanced AC-3
Commercial name : Dolby Digital Plus
Codec ID : A_EAC3
Duration : 1 h 3 min
Bit rate mode : Constant
Bit rate : 224 kb/s
Channel(s) : 2 channels
Channel layout : L R
Sampling rate : 48.0 kHz
Frame rate : 31.250 FPS (1536 SPF)
Compression mode : Lossy
Stream size : 102 MiB (2%)
Language : English
Service kind : Complete Main
Default : Yes
Forced : No

Text
ID : 3
Format : UTF-8
Codec ID : S_TEXT/UTF8
Codec ID/Info : UTF-8 Plain Text
Duration : 1 h 0 min
Bit rate : 72 b/s
Count of elements : 617
Stream size : 32.4 KiB (0%)
Language : English
Default : Yes
Forced : No





1 个附件 售价 大小 下载 时间

Barolo.Boys.the.Story.of.a.Revolution.2014.1080p.AMZN.WEBRip.DDP2.0.x264-LPAIN.zip 0 金币 27.79K 98 次 8天前

#1楼
发帖时间:2021-01-13 22:50:08   |   回复数:0
游客组