travismk
一代宗师

[2008] [欧美] [喜剧] [BD-720P] 大明星从军记/明星从军记 Major.Movie.Star.2008.720p.BluRay.x264-WoAT 4.20GB

-->

帖子完整标题:大明星从军记/明星从军记 Major.Movie.Star.2008.720p.BluRay.x264-WoAT 4.20GB



◎译  名 大明星从军记/明星从军记/电影大明星
◎片  名 Major Movie Star
◎年  代 2008
◎产  地 美国
◎类  别 喜剧
◎语  言 英语
◎上映日期 2008-11-07
◎IMDb评分 4.3/10 from 3932 users
◎IMDb链接 https://www.imdb.com/title/tt1034320/
◎豆瓣评分 5.9/10 from 2373 users
◎豆瓣链接 https://movie.douban.com/subject/2084312/
◎片  长 98 分钟
◎导  演 史蒂夫·迈纳 Steve Miner
◎主  演 杰西卡·辛普森 Jessica Simpson
      瑞安·斯派克 Ryan Sypek
      切里·奥特莱 Cheri Oteri
      埃美·加西亚 Aimee Garcia
      斯蒂夫·古根伯格 Steve Guttenberg
      比尔·斯汀奇康布 Bill Stinchcomb
      Colvin Roberson
      达塞尔·怀特·莫雷诺 Darcel White Moreno
      Andy Milonakis
      大卫·皮特 David Pitt
      Katherine Owens
      丽贝卡·霍洛维 Rebecca Holloway
      Michael C. 'Mike' Allen
      John F. Daniel
      Chuck Vail
      Erika Perez
      Christopher Ware
      Cory Patt
      埃里克·凯利·麦克法兰 Eric Kelly McFarland
      David E. Brown
      约翰尼·罗克 Johnny Rock
      德鲁·沃特斯 Drew Waters
      凯蒂·谢纳卡斯 Katie Chonacas
      史蒂芬·米拉蒙茨 Steven Miramontz
      拜斯·约翰逊 Bryce Johnson
      奥莱斯雅·鲁林 Olesya Rulin
      薇薇卡·福克斯 Vivica A. Fox
      迈克尔·希区柯克 Michael Hitchcock
      马科·圣约翰 Marco St. John
      柯特·富勒 Kurt Fuller
      拉腊·格赖斯 Lara Grice
      吉尔·玛丽·琼斯 Jill Marie Jones
      加里·格鲁布斯 Gary Grubbs
      安庆名惠子 Keiko Agena
      特拉维斯·舒德特 Travis Schuldt
      Ryan Glorioso
      布莱昂·帕夫 Breon Pugh
      布伦特·韦斯纳 Brent Weisner

◎标  签 喜剧 | 美国 | 美国电影 | 青春 | JessicaSimpson | 成长 | 励志 | 2008

◎简  介

  好莱坞女明星梅根·帕克(杰西卡·辛普森 Jessica Simpson饰),一个被公认为只有美貌而毫无智慧的肤浅花瓶。然而自我感觉良好的梅根,却毫无觉察,仍深信自己集万千宠爱于一身。
  
  直到她突然发现自己在公众的眼中并不像自己想象的那么重要时,梅根感到极度的失望。而随之而来的噩运,更让梅根对生活都丧失了信心。她的男友一夜之间变成了一名同志,她的理财师携款私逃。但出人意料的是,一场意外车祸却成为了万念俱灰的梅根的救命稻草。梅根发生车祸的地点,刚好是美国陆军招聘处的门前。于是,梅根误打误撞地应征加入了美国陆军,开始了令人啼笑皆非的军营生活。

Video
ID : 1
Format : AVC
Format/Info : Advanced Video Codec
Format profile : [email protected]
Format settings : CABAC / 8 Ref Frames
Format settings, CABAC : Yes
Format settings, Reference frames : 8 frames
Codec ID : V_MPEG4/ISO/AVC
Duration : 1 h 40 min
Bit rate : 4 842 kb/s
Width : 1 280 pixels
Height : 720 pixels
Display aspect ratio : 16:9
Frame rate mode : Constant
Frame rate : 23.976 (24000/1001/189150) FPS
Color space : YUV
Chroma subsampling : 4:2:0
Bit depth : 8 bits
Scan type : Progressive
Bits/(Pixel*Frame) : 0.219
Stream size : 3.38 GiB (80%)
Writing library : x264 core 161 r3027 4121277
Encoding settings : cabac=1 / ref=8 / deblock=1:-3:-3 / analyse=0x3:0x133 / me=umh / subme=9 / psy=1 / psy_rd=1.00:0.00 / mixed_ref=1 / me_range=32 / chroma_me=1 / trellis=2 / 8x8dct=1 / cqm=0 / deadzone=21,11 / fast_pskip=0 / chroma_qp_offset=-2 / threads=12 / lookahead_threads=2 / sliced_threads=0 / nr=0 / decimate=0 / interlaced=0 / bluray_compat=0 / constrained_intra=0 / bframes=9 / b_pyramid=2 / b_adapt=2 / b_bias=0 / direct=3 / weightb=1 / open_gop=0 / weightp=2 / keyint=250 / keyint_min=23 / scenecut=40 / intra_refresh=0 / rc=crf / mbtree=0 / crf=19.5 / qcomp=0.60 / qpmin=0 / qpmax=69 / qpstep=4 / ip_ratio=1.40 / pb_ratio=1.30 / aq=3:0.88
Default : Yes
Forced : No
Color range : Limited
Matrix coefficients : BT.709

Audio
ID : 2
Format : FLAC
Format/Info : Free Lossless Audio Codec
Codec ID : A_FLAC
Duration : 1 h 40 min
Bit rate mode : Variable
Bit rate : 1 162 kb/s
Channel(s) : 6 channels
Channel layout : L R C LFE Ls Rs
Sampling rate : 48.0 kHz
Frame rate : 11.719 FPS (4096 SPF)
Bit depth : 16 bits
Compression mode : Lossless
Stream size : 831 MiB (19%)
Title : English
Writing library : libFLAC 1.3.3 (UTC 2019-08-04)
Language : English
Default : No
Forced : No

Text
ID : 3
Format : PGS
Muxing mode : zlib
Codec ID : S_HDMV/PGS
Codec ID/Info : Picture based subtitle format used on BDs/HD-DVDs
Duration : 1 h 35 min
Bit rate : 35.2 kb/s
Count of elements : 1788
Stream size : 24.0 MiB (1%)
Title : Dutch
Language : Dutch
Default : No
Forced : No

Menu
00:00:00.000 : en:Chapter 01
00:08:19.457 : en:Chapter 02
00:14:30.286 : en:Chapter 03
00:24:23.379 : en:Chapter 04
00:32:32.367 : en:Chapter 05
00:40:12.994 : en:Chapter 06
00:48:29.406 : en:Chapter 07
00:55:35.332 : en:Chapter 08
01:07:41.641 : en:Chapter 09
01:15:32.486 : en:Chapter 10
01:23:36.970 : en:Chapter 11
01:30:41.728 : en:Chapter 12





1 个附件 售价 大小 下载 时间

Major.Movie.Star.2008.720p.BluRay.x264-WoAT.zip 0 金币 42.72K 287 次 8天前

#1楼
发帖时间:2021-01-14 09:33:42   |   回复数:0
游客组