travismk
一代宗师

[更 早] [其他] [喜剧] [WEB-720P] 裂缝 The.Slit.1996.GERMAN.720p.AMZN.WEBRip.DDP2.0.x264-TEPES 3.10GB

-->

帖子完整标题:裂缝 The.Slit.1996.GERMAN.720p.AMZN.WEBRip.DDP2.0.x264-TEPES 3.10GB



◎译  名 裂缝/The Slit
◎片  名 United Trash
◎年  代 1996
◎产  地 德国
◎类  别 喜剧
◎语  言 德语,英语
◎上映日期 1996
◎IMDb评分 6/10 from 247 users
◎IMDb链接 https://www.imdb.com/title/tt0118045/
◎豆瓣评分 /10 from 0 users
◎豆瓣链接 https://movie.douban.com/subject/3712123/
◎片  长 75 分钟
◎导  演 克里斯托弗·施林根西夫 Christoph Schlingensief
◎编  剧 奥斯卡·罗勒 Oskar Roehler / 克里斯托弗·施林根西夫 Christoph Schlingensief
◎主  演 乌多·基尔 Udo Kier
      Miklos K?niger
      Dietrich Kuhlbrodt
      Wolfgang Gr?nebaum
      Susanne Bredeh?ft
      小猫娜提雅维达 Kitten Natividad
      彼得·科恩 Peter Kern
      克里斯托弗·施林根西夫 Christoph Schlingensief
      约阿希姆·托马舍夫斯基 Joachim Tomaschewsky

◎标  签 施林根基夫 | 德国 | 克里斯托夫?

◎简  介

  暂无相关剧情介绍

Video
ID : 1
Format : AVC
Format/Info : Advanced Video Codec
Format profile : [email protected]
Format settings : CABAC / 4 Ref Frames
Format settings, CABAC : Yes
Format settings, Reference frames : 4 frames
Codec ID : V_MPEG4/ISO/AVC
Duration : 1 h 16 min
Bit rate mode : Constant
Bit rate : 5 597 kb/s
Nominal bit rate : 6 000 kb/s
Width : 1 280 pixels
Height : 688 pixels
Display aspect ratio : 1.85:1
Frame rate mode : Constant
Frame rate : 24.000 FPS
Color space : YUV
Chroma subsampling : 4:2:0
Bit depth : 8 bits
Scan type : Progressive
Bits/(Pixel*Frame) : 0.265
Stream size : 2.98 GiB (96%)
Default : Yes
Forced : No
Color range : Limited
Color primaries : BT.709
Transfer characteristics : BT.709
Matrix coefficients : BT.709

Audio
ID : 2
Format : E-AC-3
Format/Info : Enhanced AC-3
Commercial name : Dolby Digital Plus
Codec ID : A_EAC3
Duration : 1 h 16 min
Bit rate mode : Constant
Bit rate : 224 kb/s
Channel(s) : 2 channels
Channel layout : L R
Sampling rate : 48.0 kHz
Frame rate : 31.250 FPS (1536 SPF)
Compression mode : Lossy
Stream size : 122 MiB (4%)
Language : German
Service kind : Complete Main
Default : Yes
Forced : No

Text
ID : 3
Format : UTF-8
Codec ID : S_TEXT/UTF8
Codec ID/Info : UTF-8 Plain Text
Duration : 1 h 14 min
Bit rate : 25 b/s
Count of elements : 427
Stream size : 14.0 KiB (0%)
Language : English
Default : No
Forced : No





1 个附件 售价 大小 下载 时间

The.Slit.1996.GERMAN.720p.AMZN.WEBRip.DDP2.0.x264-TEPES.zip 0 金币 31.70K 63 次 1天前

#1楼
发帖时间:2021-01-14 11:21:33   |   回复数:0
游客组