travismk
一代宗师

[更 早] [其他] [剧情] [WEB-1080P] 深入虎穴 Out.of.Reach.2004.1080p.AMZN.WEBRip.DDP5.1.x264-Cinefeel 8.63GB

-->

帖子完整标题:深入虎穴 Out.of.Reach.2004.1080p.AMZN.WEBRip.DDP5.1.x264-Cinefeel 8.63GB



◎译  名 深入虎穴
◎片  名 Out of Reach
◎年  代 2004
◎产  地 美国,波兰
◎类  别 剧情 / 动作 / 爱情 / 惊悚
◎语  言 英语
◎上映日期 2004-07-20
◎IMDb评分 4/10 from 4602 users
◎IMDb链接 https://www.imdb.com/title/tt0377100/
◎豆瓣评分 5.7/10 from 199 users
◎豆瓣链接 https://movie.douban.com/subject/1433460/
◎片  长 86 分钟
◎导  演 梁普智 Po-Chih Leong
◎编  剧 James Townsend / Trevor Miller
◎主  演 史蒂文·席格 Steven Seagal
      Ida Nowakowska
      阿格尼兹卡·旺格 Agnieszka Wagner
      马特·斯查尔兹 Matt Schulze
      Maria Maj
      Anna Wendzikowska
      Katarzyna Walter
      Bogdan Szczesiak
      Pawel Szczesny
      克日什托夫·皮耶钦斯基 Krzysztof Pieczynski
      罗比·基 Robbie Gee
      Jacek Samojlowicz
      汉娜·杜诺夫斯卡 Hanna Dunowska

◎标  签 动作 | 美国 | StevenSeagal | 美国电影 | 犯罪 | 2004 | 电影 | 深入虎穴

◎简  介

  Billy Ray Lancing, a former covert agent turned survivalist, discovers that the foster program he is using to help a young girl is actually a human trafficking network. Lancing heads overseas to find the girl and shut down the operation.

Video
ID : 1
Format : AVC
Format/Info : Advanced Video Codec
Format profile : [email protected]
Format settings : CABAC / 4 Ref Frames
Format settings, CABAC : Yes
Format settings, Reference frames : 4 frames
Codec ID : V_MPEG4/ISO/AVC
Duration : 1 h 25 min
Bit rate mode : Variable
Bit rate : 13.8 Mb/s
Maximum bit rate : 15.0 Mb/s
Width : 1 920 pixels
Height : 1 080 pixels
Display aspect ratio : 16:9
Frame rate mode : Constant
Frame rate : 23.976 (24000/1001/189150) FPS
Color space : YUV
Chroma subsampling : 4:2:0
Bit depth : 8 bits
Scan type : Progressive
Bits/(Pixel*Frame) : 0.277
Stream size : 8.25 GiB (96%)
Default : Yes
Forced : No
Color range : Limited
Color primaries : BT.709
Transfer characteristics : BT.709
Matrix coefficients : BT.709

Audio
ID : 2
Format : E-AC-3
Format/Info : Enhanced AC-3
Commercial name : Dolby Digital Plus
Codec ID : A_EAC3
Duration : 1 h 25 min
Bit rate mode : Constant
Bit rate : 640 kb/s
Channel(s) : 6 channels
Channel layout : L R C LFE Ls Rs
Sampling rate : 48.0 kHz
Frame rate : 31.250 FPS (1536 SPF)
Compression mode : Lossy
Stream size : 392 MiB (4%)
Title : English
Language : English
Service kind : Complete Main
Default : Yes
Forced : No

Text
ID : 3
Format : UTF-8
Codec ID : S_TEXT/UTF8
Codec ID/Info : UTF-8 Plain Text
Duration : 1 h 22 min
Bit rate : 42 b/s
Count of elements : 1086
Stream size : 25.4 KiB (0%)
Title : English [Full]
Language : English
Default : No
Forced : No





1 个附件 售价 大小 下载 时间

Out.of.Reach.2004.1080p.AMZN.WEBRip.DDP5.1.x264-Cinefeel.zip 0 金币 43.84K 427 次 1天前

#1楼
发帖时间:2021-01-14 11:23:57   |   回复数:0
游客组