travismk
一代宗师

[2014] [韩国] [剧情] [WEB-720P] 自由之丘 Hill.of.Freedom.2014.KOREAN.ENSUBBED.720p.AMZN.WEBRip.DDP2.0.x264-TEPES 1.9

-->

帖子完整标题:自由之丘 Hill.of.Freedom.2014.KOREAN.ENSUBBED.720p.AMZN.WEBRip.DDP2.0.x264-TEPES 1.94GB



◎译  名 自由之丘/Hill of Freedom/相约在首尔(台)
◎片  名 ??? ??
◎年  代 2014
◎产  地 韩国
◎类  别 剧情
◎语  言 英语,韩语,日语
◎上映日期 2014-09-04(韩国)
◎IMDb评分 7/10 from 974 users
◎IMDb链接 https://www.imdb.com/title/tt3732252/
◎豆瓣评分 7.3/10 from 10535 users
◎豆瓣链接 https://movie.douban.com/subject/10796578/
◎片  长 67分钟
◎导  演 洪常秀 Sang-soo Hong
◎编  剧 洪常秀 Sang-soo Hong
◎主  演 加濑亮 Ryo Kase
      文素丽 So-ri Moon
      徐永嬅 Young-hwa Seo
      金义城 Eui-sung Kim
      尹汝贞 Yeo-jeong Yoon
      纪柱峰 Ju-bong Gi
      郑恩彩 Eun-Chae Jeong
      李珉宇 Min-woo Lee

◎标  签 洪尚秀 | 韩国 | 韩国电影 | 加濑亮 | 2014 | 爱情 | 剧情 | 文艺

◎简  介

  电影讲述的是加濑亮出演的日本男人前往首尔,试图与他心爱的女人复合的故事。

◎获奖情况

  第71届威尼斯电影节 ?(2014)
  地平线单元奖最佳影片(提名) 洪常秀
  
  第9届亚洲电影大奖 ?(2015)
  最佳电影(提名)
  最佳导演(提名) 洪常秀
  最佳男主角(提名) 加濑亮
  
  第51届百想艺术大赏 ?(2015)
  电影类最佳导演(提名) 洪常秀

Video
ID : 1
Format : AVC
Format/Info : Advanced Video Codec
Format profile : [email protected]
Format settings : CABAC / 4 Ref Frames
Format settings, CABAC : Yes
Format settings, Reference frames : 4 frames
Codec ID : V_MPEG4/ISO/AVC
Duration : 1 h 7 min
Bit rate mode : Constant
Bit rate : 3 913 kb/s
Nominal bit rate : 6 000 kb/s
Width : 1 280 pixels
Height : 720 pixels
Display aspect ratio : 16:9
Frame rate mode : Constant
Frame rate : 23.976 (24000/1001/189150) FPS
Color space : YUV
Chroma subsampling : 4:2:0
Bit depth : 8 bits
Scan type : Progressive
Bits/(Pixel*Frame) : 0.177
Stream size : 1.83 GiB (95%)
Default : Yes
Forced : No
Color range : Limited
Color primaries : BT.709
Transfer characteristics : BT.709
Matrix coefficients : BT.709

Audio
ID : 2
Format : E-AC-3
Format/Info : Enhanced AC-3
Commercial name : Dolby Digital Plus
Codec ID : A_EAC3
Duration : 1 h 7 min
Bit rate mode : Constant
Bit rate : 224 kb/s
Channel(s) : 2 channels
Channel layout : L R
Sampling rate : 48.0 kHz
Frame rate : 31.250 FPS (1536 SPF)
Compression mode : Lossy
Stream size : 107 MiB (5%)
Language : Korean
Service kind : Complete Main
Default : Yes
Forced : No





1 个附件 售价 大小 下载 时间

Hill.of.Freedom.2014.KOREAN.ENSUBBED.720p.AMZN.WEBRip.DDP2.0.x264-TEPES.zip 0 金币 20.11K 133 次 1天前

#1楼
发帖时间:2021-01-14 11:31:33   |   回复数:0
游客组